Tags
Language
Tags
December 2022
Su Mo Tu We Th Fr Sa
27 28 29 30 1 2 3
4 5 6 7 8 9 10
11 12 13 14 15 16 17
18 19 20 21 22 23 24
25 26 27 28 29 30 31

Uchi no Maid ga Uzasugiru! (2018)

Posted By: Lebedev30
Uchi no Maid ga Uzasugiru! (2018)

Uchi no Maid ga Uzasugiru! (2018)
WEBRip | MKV | 1920x1080 | H264@5112 Kbps | 13x ~ 25mn | 13x ~800 Mb
日本語 AAC@128 Kbps | 2 channels | Subtitles: English, Español, Português
Genre: comedy, seinen, shoujo ai


Description:
* Based on a comedy manga written and drawn by Nakamura Kanko.

Takanashi Misha is a second grade elementary school girl whose father is Japanese and mother was Russian. After she lost her mother at an early age, she has lived alone with her father. One day, a new maid named Kamoi Tsubame comes to their house to serve as their maid. She was a former master sergeant of Japan Air Self-Defense Force, and her biggest problem is that she is a lolicon who is deeply attracted to Misha.






01. Our Maid Is Too Annoying!
02. My Maid Kidnapped Me
03. My Maid Is Sneaking Up On Me
04. My Maid Reveres Young Girls
05. My Maid Is Everywhere
06. Our Maid`s Girl from the Past?
07. My Maid Doesn`t Come Anymore
08. My Former Maid Is from a Good Family
09. My Maid and the Day We Met
10. My Maid and Yasuhiro
11. My Maid and the Forbidden Room
12. My Maid Now and Forever
S1. My Maid Is Still Seriously Way Too Annoying…


General
Format : Matroska
Format version : Version 4 / Version 2
File size : 888 MiB
Duration : 23 min 40 s
Overall bit rate : 5 243 kb/s
Encoded date : UTC 2018-10-12 15:47:08
Writing application : mkvmerge v26.0.0 ('In The Game') 64-bit
Writing library : libebml v1.3.6 + libmatroska v1.4.9

Video
ID : 1
Format : AVC
Format/Info : Advanced Video Codec
Format profile : High@L4
Format settings : CABAC / 4 Ref Frames
Format settings, CABAC : Yes
Format settings, RefFrames : 4 frames
Codec ID : V_MPEG4/ISO/AVC
Duration : 23 min 40 s
Bit rate : 5 112 kb/s
Width : 1 920 pixels
Height : 1 080 pixels
Display aspect ratio : 16:9
Frame rate mode : Constant
Frame rate : 23.976 (24000/1001) FPS
Color space : YUV
Chroma subsampling : 4:2:0
Bit depth : 8 bits
Scan type : Progressive
Bits/(Pixel*Frame) : 0.103
Stream size : 865 MiB (98%)
Writing library : x264 core 142
Encoding settings : cabac=1 / ref=4 / deblock=1:1:1 / analyse=0x3:0x113 / me=umh / subme=8 / psy=1 / psy_rd=0.40:0.00 / mixed_ref=1 / me_range=16 / chroma_me=1 / trellis=1 / 8x8dct=1 / cqm=0 / deadzone=21,11 / fast_pskip=1 / chroma_qp_offset=-2 / threads=12 / lookahead_threads=2 / sliced_threads=0 / nr=0 / decimate=1 / interlaced=0 / bluray_compat=0 / constrained_intra=0 / bframes=3 / b_pyramid=2 / b_adapt=2 / b_bias=0 / direct=3 / weightb=1 / open_gop=0 / weightp=2 / keyint=48 / keyint_min=25 / scenecut=0 / intra_refresh=0 / rc_lookahead=48 / rc=crf / mbtree=1 / crf=15.0 / qcomp=0.60 / qpmin=0 / qpmax=69 / qpstep=4 / vbv_maxrate=8000 / vbv_bufsize=12000 / crf_max=0.0 / nal_hrd=none / filler=0 / ip_ratio=1.40 / aq=1:0.60
Default : Yes
Forced : No

Audio
ID : 2
Format : AAC
Format/Info : Advanced Audio Codec
Format profile : LC
Codec ID : A_AAC-2
Duration : 23 min 40 s
Bit rate : 128 kb/s
Channel(s) : 2 channels
Channel positions : Front: L R
Sampling rate : 44.1 kHz
Frame rate : 43.066 FPS (1024 SPF)
Compression mode : Lossy
Delay relative to video : -83 ms
Stream size : 21.7 MiB (2%)
Default : Yes
Forced : No

Text #1
ID : 3
Format : ASS
Codec ID : S_TEXT/ASS
Codec ID/Info : Advanced Sub Station Alpha
Duration : 21 min 29 s
Bit rate : 134 b/s
Count of elements : 341
Compression mode : Lossless
Stream size : 21.2 KiB (0%)
Title : English(US)
Language : English
Default : Yes
Forced : No

Text #2
ID : 4
Format : ASS
Codec ID : S_TEXT/ASS
Codec ID/Info : Advanced Sub Station Alpha
Duration : 21 min 29 s
Bit rate : 126 b/s
Count of elements : 312
Compression mode : Lossless
Stream size : 19.9 KiB (0%)
Title : Espanol
Language : Spanish
Default : No
Forced : No

Text #3
ID : 5
Format : ASS
Codec ID : S_TEXT/ASS
Codec ID/Info : Advanced Sub Station Alpha
Duration : 21 min 29 s
Bit rate : 139 b/s
Count of elements : 337
Compression mode : Lossless
Stream size : 21.9 KiB (0%)
Title : Portugues(Brasil)
Language : Portuguese
Default : No
Forced : No


Screenshots

Uchi no Maid ga Uzasugiru! (2018)

Uchi no Maid ga Uzasugiru! (2018)

Uchi no Maid ga Uzasugiru! (2018)


My publications | Rss Channel