Tags
Language
Tags

Ueno-san wa Bukiyou (2019)

Posted By: Lebedev30
Ueno-san wa Bukiyou (2019)

Ueno-san wa Bukiyou (2019)
WEBRip | MKV | 1920x1080 | H264@5476 Kbps | 12x ~ 12mn | 12x ~500 Mb
日本語 AAC@128 Kbps | 2 channels | Subtitles: English, Español, Português, Русский, Italiano, Deutsch, Français
Genre: comedy, ecchi, half-length episodes, middle school, school clubs, science fiction, seinen, super deformed


Description:
* Based on Tugeneko's seinen comedy romance manga.

Not only is Ueno the president of the science club at her junior high school, she's a genius inventor, too! However, despite everything she has going for her, there's one big problem she can't seem to solve: no matter what she does, she can't figure out how to confess to her crush, Tanaka! Can she find a way to give her heart what it truly yearns for?






01. Rocker-kun / Kumatander No. 2
02. Dash-tan / 1-7-6 Protective Gear
03. The Kilt Hide / Garakutan
04. Ueno No. 13 / The Summon Stat
05. The P-Specter / PE Reserver
06. II Umbrella / E-Q Booster
07. Panty Roti / The Gatcha-Porter
08. Coitsu Nate Luna D / Pero-Lilion
09. Jigatights / SQ-Water
10. Kanchikan / Repara-te
11. The Invisi-Bloomer / The Rearscort
12. Gan-Q / Ballet-tan


General
Format : Matroska
Format version : Version 4 / Version 2
File size : 502 MiB
Duration : 12 min 30 s
Overall bit rate : 5 608 kb/s
Encoded date : UTC 2019-02-05 06:19:50
Writing application : mkvmerge v26.0.0 ('In The Game') 64-bit
Writing library : libebml v1.3.6 + libmatroska v1.4.9

Video
ID : 1
Format : AVC
Format/Info : Advanced Video Codec
Format profile : High@L4
Format settings : CABAC / 4 Ref Frames
Format settings, CABAC : Yes
Format settings, RefFrames : 4 frames
Codec ID : V_MPEG4/ISO/AVC
Duration : 12 min 30 s
Bit rate : 5 476 kb/s
Width : 1 920 pixels
Height : 1 080 pixels
Display aspect ratio : 16:9
Frame rate mode : Constant
Frame rate : 23.976 (24000/1001) FPS
Color space : YUV
Chroma subsampling : 4:2:0
Bit depth : 8 bits
Scan type : Progressive
Bits/(Pixel*Frame) : 0.110
Stream size : 490 MiB (98%)
Writing library : x264 core 142
Encoding settings : cabac=1 / ref=4 / deblock=1:1:1 / analyse=0x3:0x113 / me=umh / subme=8 / psy=1 / psy_rd=0.40:0.00 / mixed_ref=1 / me_range=16 / chroma_me=1 / trellis=1 / 8x8dct=1 / cqm=0 / deadzone=21,11 / fast_pskip=1 / chroma_qp_offset=-2 / threads=12 / lookahead_threads=2 / sliced_threads=0 / nr=0 / decimate=1 / interlaced=0 / bluray_compat=0 / constrained_intra=0 / bframes=3 / b_pyramid=2 / b_adapt=2 / b_bias=0 / direct=3 / weightb=1 / open_gop=0 / weightp=2 / keyint=9999999 / keyint_min=5000000 / scenecut=0 / intra_refresh=0 / rc_lookahead=50 / rc=crf / mbtree=1 / crf=15.0 / qcomp=0.60 / qpmin=0 / qpmax=69 / qpstep=4 / vbv_maxrate=8000 / vbv_bufsize=12000 / crf_max=0.0 / nal_hrd=none / filler=0 / ip_ratio=1.40 / aq=1:0.60
Default : Yes
Forced : No

Audio
ID : 2
Format : AAC
Format/Info : Advanced Audio Codec
Format profile : LC
Codec ID : A_AAC-2
Duration : 12 min 30 s
Bit rate : 128 kb/s
Channel(s) : 2 channels
Channel positions : Front: L R
Sampling rate : 44.1 kHz
Frame rate : 43.066 FPS (1024 SPF)
Compression mode : Lossy
Delay relative to video : -83 ms
Stream size : 11.5 MiB (2%)
Default : Yes
Forced : No

Text #1
ID : 3
Format : ASS
Codec ID : S_TEXT/ASS
Codec ID/Info : Advanced Sub Station Alpha
Duration : 10 min 28 s
Bit rate : 199 b/s
Count of elements : 227
Compression mode : Lossless
Stream size : 15.3 KiB (0%)
Title : English(US)
Language : English
Default : Yes
Forced : No

Text #2
ID : 4
Format : ASS
Codec ID : S_TEXT/ASS
Codec ID/Info : Advanced Sub Station Alpha
Duration : 10 min 28 s
Bit rate : 189 b/s
Count of elements : 206
Compression mode : Lossless
Stream size : 14.5 KiB (0%)
Title : Francais(France)
Language : French
Default : No
Forced : No

Text #3
ID : 5
Format : ASS
Codec ID : S_TEXT/ASS
Codec ID/Info : Advanced Sub Station Alpha
Duration : 10 min 28 s
Bit rate : 220 b/s
Count of elements : 240
Compression mode : Lossless
Stream size : 16.9 KiB (0%)
Title : Deutsch
Language : German
Default : No
Forced : No

Text #4
ID : 6
Format : ASS
Codec ID : S_TEXT/ASS
Codec ID/Info : Advanced Sub Station Alpha
Duration : 10 min 28 s
Bit rate : 210 b/s
Count of elements : 223
Compression mode : Lossless
Stream size : 16.1 KiB (0%)
Title : Italiano
Language : Italian
Default : No
Forced : No

Text #5
ID : 7
Format : ASS
Codec ID : S_TEXT/ASS
Codec ID/Info : Advanced Sub Station Alpha
Duration : 10 min 28 s
Bit rate : 157 b/s
Count of elements : 200
Compression mode : Lossless
Stream size : 12.1 KiB (0%)
Title : Espanol(Espana)
Language : Spanish
Default : No
Forced : No

Text #6
ID : 8
Format : ASS
Codec ID : S_TEXT/ASS
Codec ID/Info : Advanced Sub Station Alpha
Duration : 10 min 28 s
Bit rate : 157 b/s
Count of elements : 200
Compression mode : Lossless
Stream size : 12.1 KiB (0%)
Title : Espanol
Language : Spanish
Default : No
Forced : No

Text #7
ID : 9
Format : ASS
Codec ID : S_TEXT/ASS
Codec ID/Info : Advanced Sub Station Alpha
Duration : 10 min 28 s
Bit rate : 187 b/s
Count of elements : 220
Compression mode : Lossless
Stream size : 14.4 KiB (0%)
Title : Portugues(Brasil)
Language : Portuguese
Default : No
Forced : No

Text #8
ID : 10
Format : ASS
Codec ID : S_TEXT/ASS
Codec ID/Info : Advanced Sub Station Alpha
Duration : 10 min 40 s
Bit rate : 277 b/s
Count of elements : 228
Compression mode : Lossless
Stream size : 21.7 KiB (0%)
Title : Russian
Language : Russian
Default : No
Forced : No


Screenshots

Ueno-san wa Bukiyou (2019)

Ueno-san wa Bukiyou (2019)

Ueno-san wa Bukiyou (2019)


My publications | Rss Channel