Tags
Language
Tags

Uma Musume: Pretty Derby (2018)

Posted By: Lebedev30
Uma Musume: Pretty Derby (2018)

Uma Musume: Pretty Derby (2018)
WEBRip | MKV | 1920x1080 | H264@5313 Kbps | 13x ~ 25mn | 13x ~900 Mb
日本語 AAC@128 Kbps | 2 channels | Subtitles: English, Español, Português
Genre: juujin, sports


Description:
This is a tale of a world where "horse girls" with glorious names and incredible running abilities live alongside humanity.

Horse girl Special Week has moved from the country to the city to attend Tracen Academy. There, she and her classmates compete to win the Twinkle Series and earn the title of "The County's #1 Horse Girl."






01. Gate of Dreams!
02. The Debut Race Out of Nowhere
03. First Big Win
04. Special Training!
05. The Derby with Rivals
06. Autumn Skies and Horse Girls
07. Promise
08. For You
09. Dreams of Spica
10. No Matter How Many Times I Lose
11. Welcome Back!
12. Stage of Dreams
13. Echo, Fanfare!


General
Format : Matroska
Format version : Version 4 / Version 2
File size : 931 MiB
Duration : 23 min 55 s
Overall bit rate : 5 444 kb/s
Encoded date : UTC 2018-04-01 16:38:48
Writing application : mkvmerge v12.0.0 ('Trust / Lust') 64bit
Writing library : libebml v1.3.4 + libmatroska v1.4.5

Video
ID : 1
Format : AVC
Format/Info : Advanced Video Codec
Format profile : High@L4
Format settings : CABAC / 4 Ref Frames
Format settings, CABAC : Yes
Format settings, RefFrames : 4 frames
Codec ID : V_MPEG4/ISO/AVC
Duration : 23 min 55 s
Bit rate : 5 313 kb/s
Width : 1 920 pixels
Height : 1 080 pixels
Display aspect ratio : 16:9
Frame rate mode : Constant
Frame rate : 23.976 (24000/1001) FPS
Color space : YUV
Chroma subsampling : 4:2:0
Bit depth : 8 bits
Scan type : Progressive
Bits/(Pixel*Frame) : 0.107
Stream size : 909 MiB (98%)
Writing library : x264 core 142
Encoding settings : cabac=1 / ref=4 / deblock=1:1:1 / analyse=0x3:0x113 / me=umh / subme=8 / psy=1 / psy_rd=0.40:0.00 / mixed_ref=1 / me_range=16 / chroma_me=1 / trellis=1 / 8x8dct=1 / cqm=0 / deadzone=21,11 / fast_pskip=1 / chroma_qp_offset=-2 / threads=12 / lookahead_threads=2 / sliced_threads=0 / nr=0 / decimate=1 / interlaced=0 / bluray_compat=0 / constrained_intra=0 / bframes=3 / b_pyramid=2 / b_adapt=2 / b_bias=0 / direct=3 / weightb=1 / open_gop=0 / weightp=2 / keyint=48 / keyint_min=24 / scenecut=40 / intra_refresh=0 / rc_lookahead=48 / rc=crf / mbtree=1 / crf=15.0 / qcomp=0.60 / qpmin=0 / qpmax=69 / qpstep=4 / vbv_maxrate=8000 / vbv_bufsize=12000 / crf_max=0.0 / nal_hrd=none / filler=0 / ip_ratio=1.40 / aq=1:0.60
Default : Yes
Forced : No

Audio
ID : 2
Format : AAC
Format/Info : Advanced Audio Codec
Format profile : LC
Codec ID : A_AAC-2
Duration : 23 min 55 s
Bit rate : 128 kb/s
Channel(s) : 2 channels
Channel positions : Front: L R
Sampling rate : 44.1 kHz
Frame rate : 43.066 FPS (1024 SPF)
Compression mode : Lossy
Delay relative to video : -83 ms
Stream size : 21.9 MiB (2%)
Default : Yes
Forced : No

Text #1
ID : 3
Format : ASS
Codec ID : S_TEXT/ASS
Codec ID/Info : Advanced Sub Station Alpha
Duration : 22 min 48 s
Bit rate : 160 b/s
Count of elements : 444
Compression mode : Lossless
Stream size : 26.8 KiB (0%)
Title : English(US)
Language : English
Default : Yes
Forced : No

Text #2
ID : 4
Format : ASS
Codec ID : S_TEXT/ASS
Codec ID/Info : Advanced Sub Station Alpha
Duration : 22 min 22 s
Bit rate : 152 b/s
Count of elements : 405
Compression mode : Lossless
Stream size : 25.0 KiB (0%)
Title : Espanol
Language : Spanish
Default : No
Forced : No

Text #3
ID : 5
Format : ASS
Codec ID : S_TEXT/ASS
Codec ID/Info : Advanced Sub Station Alpha
Duration : 22 min 15 s
Bit rate : 151 b/s
Count of elements : 416
Compression mode : Lossless
Stream size : 24.6 KiB (0%)
Title : Portugues(Brasil)
Language : Portuguese
Default : No
Forced : No


Screenshots

Uma Musume: Pretty Derby (2018)

Uma Musume: Pretty Derby (2018)

Uma Musume: Pretty Derby (2018)


My publications | Rss Channel