Tags
Language
Tags

Vampire Knight (2008)

Posted By: Lebedev30
Vampire Knight (2008)

Vampire Knight (2008)
WEBRip | MKV | 720x480 | H264@1000 Kbps | 13x ~ 25mn | 13x ~180 Mb
日本語 E-AC-3@128 Kbps | 2 channels | Subtitles: العربية, English, Español, Português, Italiano, Français
Genre: angst, bishounen, contemporary fantasy, fantasy, reverse harem, romance, shoujo, tragedy, vampire


Description:
* Based on a shoujo manga by Hino Matsuri, serialised in LaLa.

The prestigious Cross Academy, a private boarding school, is attended by two groups of students: the Day Class and the Night Class. At twilight, when the students of the Day Class return to their dorm, they cross paths with the Night Class on their way to school. Yuuki Cross and Kiryuu Zero are the guardians of the school, there to protect the Day Class from the academy's dark secret: the Night Class is full of vampires. — from Viz

Yuuki's earliest memory is of a stormy night in winter, wherein she was attacked by a vampire… and then rescued by another. Now ten years later, Cross Yuuki, the adopted daughter of the headmaster of Cross Academy, has grown up and become a guardian of the vampire race, protecting her saviour, Kaname, from discovery as he leads a group of vampires at the elite boarding school. But also at her side is Kiryuu Zero, a childhood friend whose hatred for the creatures that destroyed everything he held dear, now determined never to trust them.

This coexisting arrangement seems all well and good, but have the vampires truly renounced their murderous ways, or is there a darker truth behind their actions? Is Kaname's infatuation with Yuuki the beginning of a forbidden romance, or is it something in her forgotten past that draws him to her? In this world of secrets, nothing is as it seems, and the price of misplaced trust may even be worse than death.






01. Night of Vampires
02. Memories of Blood
03. The Fang of Penitence
04. Trigger of Condemnation
05. Moonlight Festivities
06. Their Choices
07. The Scarlet Maze
08. Gunshot of Sorrow
09. Crimson Gaze
10. The Princess of Darkness
11. Consequence of Desire
12. Vow of the Pureblood
13. Crimson Chains


General
Format : Matroska
Format version : Version 4 / Version 2
File size : 195 MiB
Duration : 24 min 13 s
Overall bit rate mode : Variable
Overall bit rate : 1 126 kb/s
Encoded date : UTC 2019-09-19 14:24:13
Writing application : mkvmerge v34.0.0 ('Sight and Seen') 64-bit
Writing library : libebml v1.3.7 + libmatroska v1.5.0

Video
ID : 1
Format : AVC
Format/Info : Advanced Video Codec
Format profile : Main@L3
Format settings : CABAC / 3 Ref Frames
Format settings, CABAC : Yes
Format settings, RefFrames : 3 frames
Codec ID : V_MPEG4/ISO/AVC
Duration : 24 min 13 s
Bit rate mode : Variable
Bit rate : 1 000 kb/s
Maximum bit rate : 1 500 kb/s
Width : 720 pixels
Height : 480 pixels
Display aspect ratio : 16:9
Frame rate mode : Constant
Frame rate : 23.976 (24000/1001) FPS
Color space : YUV
Chroma subsampling : 4:2:0
Bit depth : 8 bits
Scan type : Progressive
Bits/(Pixel*Frame) : 0.121
Stream size : 172 MiB (88%)
Writing library : x264 core 118
Encoding settings : cabac=1 / ref=3 / deblock=1:0:0 / analyse=0x1:0x111 / me=umh / subme=10 / psy=1 / psy_rd=1.00:0.00 / mixed_ref=1 / me_range=24 / chroma_me=1 / trellis=2 / 8x8dct=0 / cqm=0 / deadzone=21,11 / fast_pskip=1 / chroma_qp_offset=-2 / threads=8 / sliced_threads=0 / nr=0 / decimate=1 / interlaced=0 / bluray_compat=0 / constrained_intra=0 / bframes=2 / b_pyramid=0 / b_adapt=2 / b_bias=0 / direct=3 / weightb=1 / open_gop=0 / weightp=2 / keyint=48 / keyint_min=25 / scenecut=0 / intra_refresh=0 / rc_lookahead=0 / rc=2pass / mbtree=1 / bitrate=1000 / ratetol=1.0 / qcomp=0.50 / qpmin=6 / qpmax=51 / qpstep=4 / cplxblur=20.0 / qblur=0.5 / vbv_maxrate=1500 / vbv_bufsize=2000 / nal_hrd=vbr / ip_ratio=1.40 / aq=1:1.00
Language : Japanese
Default : Yes
Forced : No

Audio
ID : 2
Format : E-AC-3
Format/Info : Enhanced Audio Coding 3
Codec ID : A_EAC3
Duration : 24 min 13 s
Bit rate mode : Constant
Bit rate : 128 kb/s
Channel(s) : 2 channels
Channel positions : Front: L R
Sampling rate : 48.0 kHz
Frame rate : 187.500 FPS (256 SPF)
Compression mode : Lossy
Stream size : 22.2 MiB (11%)
Language : Japanese
Service kind : Complete Main
Default : Yes
Forced : No

Text #1
ID : 3
Format : ASS
Codec ID : S_TEXT/ASS
Codec ID/Info : Advanced Sub Station Alpha
Duration : 23 min 54 s
Bit rate : 119 b/s
Count of elements : 487
Compression mode : Lossless
Stream size : 20.9 KiB (0%)
Language : English
Default : Yes
Forced : No

Text #2
ID : 4
Format : ASS
Codec ID : S_TEXT/ASS
Codec ID/Info : Advanced Sub Station Alpha
Duration : 23 min 57 s
Bit rate : 130 b/s
Count of elements : 341
Compression mode : Lossless
Stream size : 23.0 KiB (0%)
Language : Arabic
Default : No
Forced : No

Text #3
ID : 5
Format : ASS
Codec ID : S_TEXT/ASS
Codec ID/Info : Advanced Sub Station Alpha
Duration : 22 min 23 s
Bit rate : 110 b/s
Count of elements : 334
Compression mode : Lossless
Stream size : 18.1 KiB (0%)
Language : Spanish
Default : No
Forced : No

Text #4
ID : 6
Format : ASS
Codec ID : S_TEXT/ASS
Codec ID/Info : Advanced Sub Station Alpha
Duration : 23 min 57 s
Bit rate : 105 b/s
Count of elements : 353
Compression mode : Lossless
Stream size : 18.5 KiB (0%)
Language : Portuguese
Default : No
Forced : No

Text #5
ID : 7
Format : ASS
Codec ID : S_TEXT/ASS
Codec ID/Info : Advanced Sub Station Alpha
Duration : 23 min 58 s
Bit rate : 102 b/s
Count of elements : 318
Compression mode : Lossless
Stream size : 18.0 KiB (0%)
Language : French
Default : No
Forced : No

Text #6
ID : 8
Format : ASS
Codec ID : S_TEXT/ASS
Codec ID/Info : Advanced Sub Station Alpha
Duration : 23 min 58 s
Bit rate : 94 b/s
Count of elements : 318
Compression mode : Lossless
Stream size : 16.5 KiB (0%)
Language : Italian
Default : No
Forced : No

Text #7
ID : 9
Format : ASS
Codec ID : S_TEXT/ASS
Codec ID/Info : Advanced Sub Station Alpha
Duration : 23 min 58 s
Bit rate : 100 b/s
Count of elements : 326
Compression mode : Lossless
Stream size : 17.7 KiB (0%)
Language : Polish
Default : No
Forced : No

Text #8
ID : 10
Format : ASS
Codec ID : S_TEXT/ASS
Codec ID/Info : Advanced Sub Station Alpha
Duration : 23 min 58 s
Bit rate : 100 b/s
Count of elements : 314
Compression mode : Lossless
Stream size : 17.6 KiB (0%)
Language : Dutch
Default : No
Forced : No

Text #9
ID : 11
Format : ASS
Codec ID : S_TEXT/ASS
Codec ID/Info : Advanced Sub Station Alpha
Duration : 23 min 57 s
Bit rate : 104 b/s
Count of elements : 341
Compression mode : Lossless
Stream size : 18.3 KiB (0%)
Language : Norwegian Bokmal
Default : No
Forced : No

Text #10
ID : 12
Format : ASS
Codec ID : S_TEXT/ASS
Codec ID/Info : Advanced Sub Station Alpha
Duration : 23 min 57 s
Bit rate : 101 b/s
Count of elements : 339
Compression mode : Lossless
Stream size : 17.9 KiB (0%)
Language : Finnish
Default : No
Forced : No

Text #11
ID : 13
Format : ASS
Codec ID : S_TEXT/ASS
Codec ID/Info : Advanced Sub Station Alpha
Duration : 23 min 56 s
Bit rate : 105 b/s
Count of elements : 345
Compression mode : Lossless
Stream size : 18.5 KiB (0%)
Language : Turkish
Default : No
Forced : No

Text #12
ID : 14
Format : ASS
Codec ID : S_TEXT/ASS
Codec ID/Info : Advanced Sub Station Alpha
Duration : 23 min 57 s
Bit rate : 106 b/s
Count of elements : 341
Compression mode : Lossless
Stream size : 18.7 KiB (0%)
Language : Swedish
Default : No
Forced : No

Text #13
ID : 15
Format : ASS
Codec ID : S_TEXT/ASS
Codec ID/Info : Advanced Sub Station Alpha
Duration : 23 min 56 s
Bit rate : 124 b/s
Count of elements : 362
Compression mode : Lossless
Stream size : 21.8 KiB (0%)
Language : Hebrew
Default : No
Forced : No

Text #14
ID : 16
Format : ASS
Codec ID : S_TEXT/ASS
Codec ID/Info : Advanced Sub Station Alpha
Duration : 23 min 54 s
Bit rate : 103 b/s
Count of elements : 332
Compression mode : Lossless
Stream size : 18.2 KiB (0%)
Language : rom
Default : No
Forced : No

Text #15
ID : 17
Format : ASS
Codec ID : S_TEXT/ASS
Codec ID/Info : Advanced Sub Station Alpha
Duration : 23 min 57 s
Bit rate : 103 b/s
Count of elements : 342
Compression mode : Lossless
Stream size : 18.2 KiB (0%)
Language : Danish
Default : No
Forced : No

Text #16
ID : 18
Format : ASS
Codec ID : S_TEXT/ASS
Codec ID/Info : Advanced Sub Station Alpha
Duration : 23 min 54 s
Bit rate : 153 b/s
Count of elements : 358
Compression mode : Lossless
Stream size : 26.9 KiB (0%)
Language : Bulgarian
Default : No
Forced : No


Screenshots

Vampire Knight (2008)

Vampire Knight (2008)

Vampire Knight (2008)


My publications | Rss Channel