Tags
Language
Tags

Violet Evergarden (2018)

Posted By: Lebedev30
Violet Evergarden (2018)

Violet Evergarden (2018)
WEBRip | MKV | 1920x1080 | H264@3512 Kbps | 14x ~ 25mn | 14x ~500 Mb
日本語 E-AC-3@128 Kbps | 2 channels | Subtitles: العربية, English, Español, Português, Italiano, Deutsch, Français
Genre: seinen, tragedy


Description:
There are words Violet heard on the battlefield, which she cannot forget. These words were given to her by someone she holds dear, more than anyone else. She does not yet know their meaning.

A certain point in time, in the continent of Telesis, the great war which divided the continent into North and South has ended after four years, and the people are welcoming a new generation.

Violet Evergarden, a young girl formerly known as "the weapon", has left the battlefield to start a new life at CH Postal Service. There, she is deeply moved by the work of "Auto Memories Dolls", who carry people's thoughts and convert them into words.

Violet begins her journey as an Auto Memories Doll, and comes face to face with various people's emotions and differing shapes of love. All the while searching for the meaning of those words.






01. "I Love You" and Auto Memoir Dolls
02. Not Coming Back
03. May You Be an Exemplary Auto Memoir Doll
04. Don`t Be a Tool, Become Someone That Matches with Their Name
05. You Write Letters That Bring People Together?
06. Under Some Starry Sky
07. " "
08. Episode 8
09. Violet Evergarden
10. A Loved One Will Always Watch Over You
11. I Don`t Want Anybody Else to Die
12. Episode 12
13. The Auto Memory Doll and "I Love You"
S1. "The Day You Understand "I Love You" Will Surely Come."


General
Format : Matroska
Format version : Version 4 / Version 2
File size : 617 MiB
Duration : 23 min 40 s
Overall bit rate mode : Variable
Overall bit rate : 3 640 kb/s
Encoded date : UTC 2018-03-28 19:45:28
Writing application : mkvmerge v18.0.0 ('Apricity') 64-bit
Writing library : libebml v1.3.5 + libmatroska v1.4.8

Video
ID : 11
Format : AVC
Format/Info : Advanced Video Codec
Format profile : Main@L4
Format settings : CABAC / 3 Ref Frames
Format settings, CABAC : Yes
Format settings, RefFrames : 3 frames
Codec ID : V_MPEG4/ISO/AVC
Duration : 23 min 39 s
Bit rate mode : Variable
Bit rate : 3 512 kb/s
Maximum bit rate : 5 220 kb/s
Width : 1 920 pixels
Height : 1 080 pixels
Display aspect ratio : 16:9
Frame rate mode : Constant
Frame rate : 23.976 (24000/1001) FPS
Color space : YUV
Chroma subsampling : 4:2:0
Bit depth : 8 bits
Scan type : Progressive
Bits/(Pixel*Frame) : 0.071
Stream size : 594 MiB (96%)
Language : Japanese
Default : Yes
Forced : No

Audio
ID : 1
Format : E-AC-3
Format/Info : Enhanced Audio Coding 3
Codec ID : A_EAC3
Duration : 23 min 39 s
Bit rate mode : Constant
Bit rate : 128 kb/s
Channel(s) : 2 channels
Channel positions : Front: L R
Sampling rate : 48.0 kHz
Frame rate : 187.500 FPS (256 SPF)
Compression mode : Lossy
Stream size : 21.7 MiB (4%)
Language : Japanese
Service kind : Complete Main
Default : Yes
Forced : No

Text #1
ID : 2
Format : ASS
Codec ID : S_TEXT/ASS
Codec ID/Info : Advanced Sub Station Alpha
Duration : 23 min 11 s
Bit rate : 96 b/s
Count of elements : 326
Compression mode : Lossless
Stream size : 16.4 KiB (0%)
Language : English
Default : Yes
Forced : No

Text #2
ID : 3
Format : ASS
Codec ID : S_TEXT/ASS
Codec ID/Info : Advanced Sub Station Alpha
Duration : 23 min 20 s
Bit rate : 96 b/s
Count of elements : 324
Compression mode : Lossless
Stream size : 16.5 KiB (0%)
Language : Spanish
Default : No
Forced : No

Text #3
ID : 4
Format : ASS
Codec ID : S_TEXT/ASS
Codec ID/Info : Advanced Sub Station Alpha
Duration : 23 min 11 s
Bit rate : 98 b/s
Count of elements : 327
Compression mode : Lossless
Stream size : 16.7 KiB (0%)
Language : Spanish
Default : No
Forced : No

Text #4
ID : 5
Format : ASS
Codec ID : S_TEXT/ASS
Codec ID/Info : Advanced Sub Station Alpha
Duration : 23 min 20 s
Bit rate : 93 b/s
Count of elements : 327
Compression mode : Lossless
Stream size : 16.0 KiB (0%)
Language : French
Default : No
Forced : No

Text #5
ID : 6
Format : ASS
Codec ID : S_TEXT/ASS
Codec ID/Info : Advanced Sub Station Alpha
Duration : 23 min 11 s
Bit rate : 93 b/s
Count of elements : 322
Compression mode : Lossless
Stream size : 15.9 KiB (0%)
Language : German
Default : No
Forced : No

Text #6
ID : 7
Format : ASS
Codec ID : S_TEXT/ASS
Codec ID/Info : Advanced Sub Station Alpha
Duration : 23 min 11 s
Bit rate : 93 b/s
Count of elements : 314
Compression mode : Lossless
Stream size : 15.9 KiB (0%)
Language : Italian
Default : No
Forced : No

Text #7
ID : 8
Format : ASS
Codec ID : S_TEXT/ASS
Codec ID/Info : Advanced Sub Station Alpha
Duration : 23 min 16 s
Bit rate : 94 b/s
Count of elements : 324
Compression mode : Lossless
Stream size : 16.1 KiB (0%)
Language : Portuguese
Default : No
Forced : No

Text #8
ID : 9
Format : ASS
Codec ID : S_TEXT/ASS
Codec ID/Info : Advanced Sub Station Alpha
Duration : 23 min 16 s
Bit rate : 93 b/s
Count of elements : 306
Compression mode : Lossless
Stream size : 15.9 KiB (0%)
Language : Portuguese
Default : No
Forced : No

Text #9
ID : 10
Format : ASS
Codec ID : S_TEXT/ASS
Codec ID/Info : Advanced Sub Station Alpha
Duration : 23 min 11 s
Bit rate : 133 b/s
Count of elements : 326
Compression mode : Lossless
Stream size : 22.7 KiB (0%)
Language : Arabic
Default : No
Forced : No


Screenshots

Violet Evergarden (2018)

Violet Evergarden (2018)

Violet Evergarden (2018)


My publications | Rss Channel