Tags
Language
Tags
November 2022
Su Mo Tu We Th Fr Sa
30 31 1 2 3 4 5
6 7 8 9 10 11 12
13 14 15 16 17 18 19
20 21 22 23 24 25 26
27 28 29 30 1 2 3

Gekijouban Wakaokami wa Shougakusei! (2018)

Posted By: Lebedev30
Gekijouban Wakaokami wa Shougakusei! (2018)

Gekijouban Wakaokami wa Shougakusei! (2018)
WEBRip | MKV | 1920x1080 | H264@4216 Kbps | 1x ~ 95mn | 1x ~3.2 Gb
日本語 E-AC-3@640 Kbps | 6 channels | Subtitles: English
Genre: Adventure, Drama


Description:
* Based on a children's book series of writer Reijou Hiroko and artist Asami.






01. Complete Movie


General
Format : Matroska
Format version : Version 4 / Version 2
File size : 3.23 GiB
Duration : 1 h 35 min
Overall bit rate : 4 858 kb/s
Encoded date : UTC 2019-07-26 20:38:38
Writing application : mkvmerge v34.0.0 ('Sight and Seen') 64-bit
Writing library : libebml v1.3.7 + libmatroska v1.5.0

Video
ID : 1
Format : AVC
Format/Info : Advanced Video Codec
Format profile : High@L4
Format settings : CABAC / 4 Ref Frames
Format settings, CABAC : Yes
Format settings, RefFrames : 4 frames
Codec ID : V_MPEG4/ISO/AVC
Duration : 1 h 35 min
Bit rate : 4 216 kb/s
Width : 1 920 pixels
Height : 1 080 pixels
Display aspect ratio : 16:9
Frame rate mode : Constant
Frame rate : 23.976 (24000/1001) FPS
Color space : YUV
Chroma subsampling : 4:2:0
Bit depth : 8 bits
Scan type : Progressive
Bits/(Pixel*Frame) : 0.085
Stream size : 2.81 GiB (87%)
Language : Japanese
Default : Yes
Forced : No
Color range : Limited
Color primaries : BT.709
Transfer characteristics : BT.709
Matrix coefficients : BT.709

Audio
ID : 2
Format : E-AC-3
Format/Info : Enhanced Audio Coding 3
Codec ID : A_EAC3
Duration : 1 h 35 min
Bit rate mode : Constant
Bit rate : 640 kb/s
Channel(s) : 6 channels
Channel positions : Front: L C R, Side: L R, LFE
Sampling rate : 48.0 kHz
Frame rate : 187.500 FPS (256 SPF)
Compression mode : Lossy
Stream size : 436 MiB (13%)
Language : Japanese
Service kind : Complete Main
Default : Yes
Forced : No

Text
ID : 3
Format : ASS
Codec ID : S_TEXT/ASS
Codec ID/Info : Advanced Sub Station Alpha
Duration : 1 h 33 min
Bit rate : 89 b/s
Count of elements : 1375
Compression mode : Lossless
Stream size : 61.1 KiB (0%)
Language : English
Default : Yes
Forced : No


Screenshots

Gekijouban Wakaokami wa Shougakusei! (2018)

Gekijouban Wakaokami wa Shougakusei! (2018)

Gekijouban Wakaokami wa Shougakusei! (2018)


My publications | Rss Channel