Tags
Language
Tags

Watashi ni Tenshi ga Maiorita! (2019)

Posted By: Lebedev30
Watashi ni Tenshi ga Maiorita! (2019)

Watashi ni Tenshi ga Maiorita! (2019)
WEBRip | MKV | 1920x1080 | H264@4274 Kbps | 13x ~ 25mn | 13x ~750 Mb
日本語 AAC@128 Kbps | 2 channels | Subtitles: English, Español, Português, Русский, Italiano, Deutsch, Français
Genre: loli, shoujo ai


Description:
* Based on a comedy yuri manga by Mukunoki Nanatsu.

Miyako is a shy college student who is also an otaku. One day she happens to meet some angelic grade school kids! When Miyako sees her little sister's new friend Hana-chan, Miyako's heart won't stop racing! Miyako tries to get along with them but struggles…






01. A Funny, Squirmy Feeling
02. Incontestably Cute
03. Imprinting
04. Can We Talk for a Moment?
05. Don`t Worry! Leave It to Me!
06. Mya-nee Doesn`t Have Any Friends
07. I Don`t Understand What Mya-nee Is Saying
08. Sometimes Ignorance Is Bliss
09. Please Stay Until I Fall Asleep
10. I Said Too Much Again
11. In Short, It`s Your Fault, Onee-san
12. Angel`s Gaze
S1. You Never Let Us Down / Always Growing Closer / Let`s Change You into This! / I`m Your Big Sister


General
Format : Matroska
Format version : Version 4 / Version 2
File size : 746 MiB
Duration : 23 min 41 s
Overall bit rate : 4 403 kb/s
Encoded date : UTC 2019-04-01 15:05:22
Writing application : mkvmerge v32.0.0 ('Astral Progressions') 64-bit
Writing library : libebml v1.3.7 + libmatroska v1.5.0

Video
ID : 1
Format : AVC
Format/Info : Advanced Video Codec
Format profile : High@L4
Format settings : CABAC / 4 Ref Frames
Format settings, CABAC : Yes
Format settings, RefFrames : 4 frames
Codec ID : V_MPEG4/ISO/AVC
Duration : 23 min 40 s
Bit rate : 4 274 kb/s
Width : 1 920 pixels
Height : 1 080 pixels
Display aspect ratio : 16:9
Frame rate mode : Constant
Frame rate : 23.976 (24000/1001) FPS
Color space : YUV
Chroma subsampling : 4:2:0
Bit depth : 8 bits
Scan type : Progressive
Bits/(Pixel*Frame) : 0.086
Stream size : 723 MiB (97%)
Writing library : x264 core 142
Encoding settings : cabac=1 / ref=4 / deblock=1:1:1 / analyse=0x3:0x113 / me=umh / subme=8 / psy=1 / psy_rd=0.40:0.00 / mixed_ref=1 / me_range=16 / chroma_me=1 / trellis=1 / 8x8dct=1 / cqm=0 / deadzone=21,11 / fast_pskip=1 / chroma_qp_offset=-2 / threads=12 / lookahead_threads=2 / sliced_threads=0 / nr=0 / decimate=1 / interlaced=0 / bluray_compat=0 / constrained_intra=0 / bframes=3 / b_pyramid=2 / b_adapt=2 / b_bias=0 / direct=3 / weightb=1 / open_gop=0 / weightp=2 / keyint=48 / keyint_min=25 / scenecut=0 / intra_refresh=0 / rc_lookahead=48 / rc=crf / mbtree=1 / crf=15.0 / qcomp=0.60 / qpmin=0 / qpmax=69 / qpstep=4 / vbv_maxrate=8000 / vbv_bufsize=12000 / crf_max=0.0 / nal_hrd=none / filler=0 / ip_ratio=1.40 / aq=1:0.60
Language : Japanese
Default : Yes
Forced : No

Audio
ID : 2
Format : AAC
Format/Info : Advanced Audio Codec
Format profile : LC
Codec ID : A_AAC-2
Duration : 23 min 40 s
Bit rate : 128 kb/s
Channel(s) : 2 channels
Channel positions : Front: L R
Sampling rate : 44.1 kHz
Frame rate : 43.066 FPS (1024 SPF)
Compression mode : Lossy
Delay relative to video : -83 ms
Stream size : 21.7 MiB (3%)
Language : Japanese
Default : Yes
Forced : No

Text #1
ID : 3
Format : ASS
Codec ID : S_TEXT/ASS
Codec ID/Info : Advanced Sub Station Alpha
Duration : 23 min 9 s
Bit rate : 152 b/s
Count of elements : 422
Compression mode : Lossless
Stream size : 26.0 KiB (0%)
Title : English(US)
Language : English
Default : Yes
Forced : No

Text #2
ID : 4
Format : ASS
Codec ID : S_TEXT/ASS
Codec ID/Info : Advanced Sub Station Alpha
Duration : 23 min 8 s
Bit rate : 143 b/s
Count of elements : 366
Compression mode : Lossless
Stream size : 24.3 KiB (0%)
Title : Francais(France)
Language : French
Default : No
Forced : No

Text #3
ID : 5
Format : ASS
Codec ID : S_TEXT/ASS
Codec ID/Info : Advanced Sub Station Alpha
Duration : 23 min 9 s
Bit rate : 147 b/s
Count of elements : 416
Compression mode : Lossless
Stream size : 24.9 KiB (0%)
Title : Deutsch
Language : German
Default : No
Forced : No

Text #4
ID : 6
Format : ASS
Codec ID : S_TEXT/ASS
Codec ID/Info : Advanced Sub Station Alpha
Duration : 23 min 9 s
Bit rate : 154 b/s
Count of elements : 403
Compression mode : Lossless
Stream size : 26.1 KiB (0%)
Title : Italiano
Language : Italian
Default : No
Forced : No

Text #5
ID : 7
Format : ASS
Codec ID : S_TEXT/ASS
Codec ID/Info : Advanced Sub Station Alpha
Duration : 23 min 9 s
Bit rate : 155 b/s
Count of elements : 424
Compression mode : Lossless
Stream size : 26.4 KiB (0%)
Title : Portugues(Brasil)
Language : Portuguese
Default : No
Forced : No

Text #6
ID : 8
Format : ASS
Codec ID : S_TEXT/ASS
Codec ID/Info : Advanced Sub Station Alpha
Duration : 23 min 10 s
Bit rate : 216 b/s
Count of elements : 414
Compression mode : Lossless
Stream size : 36.8 KiB (0%)
Title : Russian
Language : Russian
Default : No
Forced : No

Text #7
ID : 9
Format : ASS
Codec ID : S_TEXT/ASS
Codec ID/Info : Advanced Sub Station Alpha
Duration : 23 min 9 s
Bit rate : 143 b/s
Count of elements : 381
Compression mode : Lossless
Stream size : 24.3 KiB (0%)
Language : Spanish
Default : No
Forced : No

Text #8
ID : 10
Format : ASS
Codec ID : S_TEXT/ASS
Codec ID/Info : Advanced Sub Station Alpha
Duration : 23 min 9 s
Bit rate : 151 b/s
Count of elements : 407
Compression mode : Lossless
Stream size : 25.6 KiB (0%)
Language : Spanish
Default : No
Forced : No


Screenshots

Watashi ni Tenshi ga Maiorita! (2019)

Watashi ni Tenshi ga Maiorita! (2019)

Watashi ni Tenshi ga Maiorita! (2019)


My publications | Rss Channel