Tags
Language
Tags
December 2022
Su Mo Tu We Th Fr Sa
27 28 29 30 1 2 3
4 5 6 7 8 9 10
11 12 13 14 15 16 17
18 19 20 21 22 23 24
25 26 27 28 29 30 31

Otaku ni Koi wa Muzukashii (2018)

Posted By: Lebedev30
Otaku ni Koi wa Muzukashii (2018)

Otaku ni Koi wa Muzukashii (2018)
WEBRip | MKV | 1920x1080 | H264@2872 Kbps | 11x ~ 25mn | 11x ~500 Mb
日本語 E-AC-3@224 Kbps | 2 channels | Subtitles: English, Español, Português, Italiano, Deutsch, Français
Genre: comedy, daily life, josei, noitaminA, romance


Description:
* Based on Fujita's josei manga.

A gaming otaku and a fujoshi reunite for the first time since middle school at work.






01. Narumi and Hirotaka Meets Again, And…
02. Are We Now Dating?
03. Sales Event and Gamers Meetup
04. Is Mature Love as Difficult?
05. Introducing Naoya and Gamers Meetup (Part II)
06. Bleak Christmas
07. Online Gaming and Their Respective Nights
08. Weakness Is Thunder and Years of Insecurity
09. Go Out on a Date with Me!
10. Introducing Kou-kun and Online Gaming Revenge
11. Love Is Hard for Otaku


General
Format : Matroska
Format version : Version 4 / Version 2
File size : 508 MiB
Duration : 22 min 54 s
Overall bit rate mode : Variable
Overall bit rate : 3 099 kb/s
Encoded date : UTC 2018-08-09 19:33:56
Writing application : mkvmerge v25.0.0 ('Prog Noir') 64-bit
Writing library : libebml v1.3.6 + libmatroska v1.4.9

Video
ID : 1
Format : AVC
Format/Info : Advanced Video Codec
Format profile : High@L4
Format settings : CABAC / 4 Ref Frames
Format settings, CABAC : Yes
Format settings, RefFrames : 4 frames
Codec ID : V_MPEG4/ISO/AVC
Duration : 22 min 54 s
Bit rate mode : Variable
Bit rate : 2 872 kb/s
Maximum bit rate : 15.0 Mb/s
Width : 1 920 pixels
Height : 1 080 pixels
Display aspect ratio : 16:9
Frame rate mode : Constant
Frame rate : 23.976 (24000/1001) FPS
Color space : YUV
Chroma subsampling : 4:2:0
Bit depth : 8 bits
Scan type : Progressive
Bits/(Pixel*Frame) : 0.058
Stream size : 471 MiB (93%)
Language : Japanese
Default : Yes
Forced : No
Color range : Limited
Color primaries : BT.709
Transfer characteristics : BT.709
Matrix coefficients : BT.709

Audio
ID : 3
Format : E-AC-3
Format/Info : Enhanced Audio Coding 3
Codec ID : A_EAC3
Duration : 22 min 54 s
Bit rate mode : Constant
Bit rate : 224 kb/s
Channel(s) : 2 channels
Channel positions : Front: L R
Sampling rate : 48.0 kHz
Frame rate : 187.500 FPS (256 SPF)
Compression mode : Lossy
Stream size : 36.7 MiB (7%)
Language : Japanese
Service kind : Complete Main
Default : Yes
Forced : No

Text #1
ID : 2
Format : ASS
Codec ID : S_TEXT/ASS
Codec ID/Info : Advanced Sub Station Alpha
Duration : 21 min 54 s
Bit rate : 118 b/s
Count of elements : 370
Compression mode : Lossless
Stream size : 19.0 KiB (0%)
Language : English
Default : Yes
Forced : No

Text #2
ID : 4
Format : ASS
Codec ID : S_TEXT/ASS
Codec ID/Info : Advanced Sub Station Alpha
Duration : 21 min 54 s
Bit rate : 121 b/s
Count of elements : 366
Compression mode : Lossless
Stream size : 19.5 KiB (0%)
Language : French
Default : No
Forced : No

Text #3
ID : 5
Format : ASS
Codec ID : S_TEXT/ASS
Codec ID/Info : Advanced Sub Station Alpha
Duration : 21 min 54 s
Bit rate : 105 b/s
Count of elements : 303
Compression mode : Lossless
Stream size : 17.0 KiB (0%)
Language : German
Default : No
Forced : No

Text #4
ID : 6
Format : ASS
Codec ID : S_TEXT/ASS
Codec ID/Info : Advanced Sub Station Alpha
Duration : 21 min 54 s
Bit rate : 117 b/s
Count of elements : 369
Compression mode : Lossless
Stream size : 18.9 KiB (0%)
Language : Italian
Default : No
Forced : No

Text #5
ID : 7
Format : ASS
Codec ID : S_TEXT/ASS
Codec ID/Info : Advanced Sub Station Alpha
Duration : 21 min 54 s
Bit rate : 118 b/s
Count of elements : 369
Compression mode : Lossless
Stream size : 19.0 KiB (0%)
Language : Portuguese
Default : No
Forced : No

Text #6
ID : 8
Format : ASS
Codec ID : S_TEXT/ASS
Codec ID/Info : Advanced Sub Station Alpha
Duration : 21 min 54 s
Bit rate : 114 b/s
Count of elements : 370
Compression mode : Lossless
Stream size : 18.3 KiB (0%)
Language : Spanish
Default : No
Forced : No

Text #7
ID : 9
Format : ASS
Codec ID : S_TEXT/ASS
Codec ID/Info : Advanced Sub Station Alpha
Duration : 21 min 54 s
Bit rate : 123 b/s
Count of elements : 369
Compression mode : Lossless
Stream size : 19.7 KiB (0%)
Language : Spanish
Default : No
Forced : No


Screenshots

Otaku ni Koi wa Muzukashii (2018)

Otaku ni Koi wa Muzukashii (2018)

Otaku ni Koi wa Muzukashii (2018)


My publications | Rss Channel