Tags
Language
Tags
November 2022
Su Mo Tu We Th Fr Sa
30 31 1 2 3 4 5
6 7 8 9 10 11 12
13 14 15 16 17 18 19
20 21 22 23 24 25 26
27 28 29 30 1 2 3

Yakusoku no Nanaya Matsuri (2018)

Posted By: Lebedev30
Yakusoku no Nanaya Matsuri (2018)

Yakusoku no Nanaya Matsuri (2018)
WEBRip | MKV | 1920x1080 | H264@4706 Kbps | 1x ~ 62mn | 1x ~2.1 Gb
日本語 AAC@128 Kbps | 2 channels | Subtitles: English, Español, Português, Italiano, Deutsch, Français
Genre: coming of age


Description:
Mihara Shouma is a first-year high school student. Shouma hasn't seen his good friend Atsushi in 3.5 years, ever since they lost contact with each other after elementary school. One day, Atsushi gets in contact with Shouma to invite him to a rare festival, so they can meet up and talk. Shouma goes to the "Tanabata Seven Night Festival" deep in the mountains, but Atsushi is not there. Instead, a girl named Shiori who also has a person she wants to meet is there. The festival's program manager Kanna suggests that he stay until the festival is over, and so Shouma and Shiori help Kanna prepare for the festival. Shouma and Shiori then get wrapped up in some strange events happening in the town.






01. Web


General
Format : Matroska
Format version : Version 4 / Version 2
File size : 2.10 GiB
Duration : 1 h 2 min
Overall bit rate : 4 837 kb/s
Encoded date : UTC 2018-08-03 12:35:03
Writing application : mkvmerge v23.0.0 ('The Bride Said No') 32-bit
Writing library : libebml v1.3.6 + libmatroska v1.4.9

Video
ID : 1
Format : AVC
Format/Info : Advanced Video Codec
Format profile : High@L4
Format settings : CABAC / 4 Ref Frames
Format settings, CABAC : Yes
Format settings, RefFrames : 4 frames
Codec ID : V_MPEG4/ISO/AVC
Duration : 1 h 2 min
Bit rate : 4 706 kb/s
Width : 1 920 pixels
Height : 1 080 pixels
Display aspect ratio : 16:9
Frame rate mode : Constant
Frame rate : 23.976 (23976/1000) FPS
Color space : YUV
Chroma subsampling : 4:2:0
Bit depth : 8 bits
Scan type : Progressive
Bits/(Pixel*Frame) : 0.095
Stream size : 2.04 GiB (97%)
Writing library : x264 core 142
Encoding settings : cabac=1 / ref=4 / deblock=1:1:1 / analyse=0x3:0x113 / me=umh / subme=8 / psy=1 / psy_rd=0.40:0.00 / mixed_ref=1 / me_range=16 / chroma_me=1 / trellis=1 / 8x8dct=1 / cqm=0 / deadzone=21,11 / fast_pskip=1 / chroma_qp_offset=-2 / threads=12 / lookahead_threads=2 / sliced_threads=0 / nr=0 / decimate=1 / interlaced=0 / bluray_compat=0 / constrained_intra=0 / bframes=3 / b_pyramid=2 / b_adapt=2 / b_bias=0 / direct=3 / weightb=1 / open_gop=0 / weightp=2 / keyint=48 / keyint_min=24 / scenecut=40 / intra_refresh=0 / rc_lookahead=48 / rc=crf / mbtree=1 / crf=15.0 / qcomp=0.60 / qpmin=0 / qpmax=69 / qpstep=4 / vbv_maxrate=8000 / vbv_bufsize=12000 / crf_max=0.0 / nal_hrd=none / filler=0 / ip_ratio=1.40 / aq=1:0.60
Default : Yes
Forced : No

Audio
ID : 2
Format : AAC
Format/Info : Advanced Audio Codec
Format profile : LC
Codec ID : A_AAC-2
Duration : 1 h 2 min
Bit rate : 128 kb/s
Channel(s) : 2 channels
Channel positions : Front: L R
Sampling rate : 44.1 kHz
Frame rate : 43.066 FPS (1024 SPF)
Compression mode : Lossy
Delay relative to video : -83 ms
Stream size : 56.9 MiB (3%)
Default : Yes
Forced : No

Text #1
ID : 3
Format : ASS
Codec ID : S_TEXT/ASS
Codec ID/Info : Advanced Sub Station Alpha
Duration : 1 h 1 min
Bit rate : 118 b/s
Count of elements : 924
Compression mode : Lossless
Stream size : 53.7 KiB (0%)
Title : English(US)
Language : English
Default : Yes
Forced : No

Text #2
ID : 4
Format : ASS
Codec ID : S_TEXT/ASS
Codec ID/Info : Advanced Sub Station Alpha
Duration : 1 h 1 min
Bit rate : 125 b/s
Count of elements : 907
Compression mode : Lossless
Stream size : 56.6 KiB (0%)
Title : Deutsch
Language : German
Default : No
Forced : No

Text #3
ID : 5
Format : ASS
Codec ID : S_TEXT/ASS
Codec ID/Info : Advanced Sub Station Alpha
Duration : 1 h 1 min
Bit rate : 118 b/s
Count of elements : 891
Compression mode : Lossless
Stream size : 53.7 KiB (0%)
Title : Espanol(Espana)
Language : Spanish
Default : No
Forced : No

Text #4
ID : 6
Format : ASS
Codec ID : S_TEXT/ASS
Codec ID/Info : Advanced Sub Station Alpha
Duration : 1 h 1 min
Bit rate : 119 b/s
Count of elements : 891
Compression mode : Lossless
Stream size : 54.2 KiB (0%)
Title : Espanol
Language : Spanish
Default : No
Forced : No

Text #5
ID : 7
Format : ASS
Codec ID : S_TEXT/ASS
Codec ID/Info : Advanced Sub Station Alpha
Duration : 1 h 1 min
Bit rate : 120 b/s
Count of elements : 833
Compression mode : Lossless
Stream size : 54.5 KiB (0%)
Title : Francais(France)
Language : French
Default : No
Forced : No

Text #6
ID : 8
Format : ASS
Codec ID : S_TEXT/ASS
Codec ID/Info : Advanced Sub Station Alpha
Duration : 1 h 1 min
Bit rate : 117 b/s
Count of elements : 888
Compression mode : Lossless
Stream size : 53.3 KiB (0%)
Title : Italiano
Language : Italian
Default : No
Forced : No

Text #7
ID : 9
Format : ASS
Codec ID : S_TEXT/ASS
Codec ID/Info : Advanced Sub Station Alpha
Duration : 1 h 1 min
Bit rate : 119 b/s
Count of elements : 906
Compression mode : Lossless
Stream size : 54.1 KiB (0%)
Title : Portugues(Brasil)
Language : Portuguese
Default : No
Forced : No


Screenshots

Yakusoku no Nanaya Matsuri (2018)

Yakusoku no Nanaya Matsuri (2018)

Yakusoku no Nanaya Matsuri (2018)


My publications | Rss Channel