Tags
Language
Tags

Yami Shibai (2013-2014,2016-2019)

Posted By: Lebedev30
Yami Shibai (2013-2014,2016-2019)

Yami Shibai (2013-2014,2016-2019)
WEBRip | MKV | 1920x1080 | H264@7658 Kbps | 91x ~ 5mn | 91x ~250 Mb
日本語 AAC@128 Kbps | 2 channels | Subtitles: English, Español, Português, Deutsch, Français
Genre: contemporary fantasy, horror, short episodes


Description:
An old man tells a series of short horror stories based around Japanese myths and urban legends to schoolchildren on a playground using kamishibai, a traditional Japanese storytelling method using paper scrolls.


















01. The Talisman Woman
02. Zanbai
03. The Family Rule
04. Hair
05. The Next Floor
06. The Overhead Rack
07. Contradiction
08. The Umbrella Goddess
09. Cursed
10. The Moon
11. Video
12. Tomonari-kun
13. Tormentor
01. Taro-chan
02. Kitchen
03. Inside
04. Wall Woman
05. Locker
06. Nao-chan
07. Capsule Toy Machine
08. Farewell Confessional
09. Ominie-san
10. Bugged
11. Picking Up
12. Netsuke
13. Bringer Drums
01. Lend It to Me
02. Tunnel
03. Rat
04. The Noisy Hospital Room
05. Museum of Taxidermy
06. "That Side" Festival
07. Behind
08. The Empress Doll
09. The Fourth Man
10. Merry-go-round
11. Cuckoo Clock
12. In the Water
13. Drawings
01. Tongue
02. Fish Tank
03. Sewing Shears
04. Red High Heel
05. Night Bus
06. Guess Who?
07. Footsteps
08. Cassette Tape
09. Grinding Teeth
10. Calling Crane
11. White Line
12. Snow Hut
13. Underground Walkway
01. Wrong Number
02. Give It to Me
03. The Crow Children
04. Copycat
05. Shadows of Women
06. Giveback-sama
07. Hide-and-Seek
08. The Neighbors
09. If You Want to See Ghosts
10. Flower Reading
11. I`m the Only One
12. The Last Bus
13. Seductress
01. Thunderous Visitor
02. Tomonashi Cave
03. The Wind`s Warning
04. Swamp Offering
05. The Dripping
06. Sakura
07. Frog Eggs
08. Sea Fortunes
09. Mud Games
10. Tree of Innocence
11. Frozen Memories
12. Waterfall Drop
13. Echoes
01. Delivery
02. The Sleepless Child
03. The Reception Room
04. Paintings
05. Notice of Termination of Service
06. The Veranda
07. Public Phone
08. Cough
09. The Woman in the Elevator
10. Manga Cafe
11. Little Sister`s Room
12. Fitting Room
13. Refrigerator


General
Format : Matroska
Format version : Version 4 / Version 2
File size : 251 MiB
Duration : 4 min 29 s
Overall bit rate : 7 788 kb/s
Encoded date : UTC 2019-07-27 05:16:28
Writing application : mkvmerge v26.0.0 ('In The Game') 64-bit
Writing library : libebml v1.3.6 + libmatroska v1.4.9

Video
ID : 1
Format : AVC
Format/Info : Advanced Video Codec
Format profile : High@L4
Format settings : CABAC / 4 Ref Frames
Format settings, CABAC : Yes
Format settings, RefFrames : 4 frames
Codec ID : V_MPEG4/ISO/AVC
Duration : 4 min 29 s
Bit rate : 7 658 kb/s
Width : 1 920 pixels
Height : 1 080 pixels
Display aspect ratio : 16:9
Frame rate mode : Constant
Frame rate : 23.976 (24000/1001) FPS
Color space : YUV
Chroma subsampling : 4:2:0
Bit depth : 8 bits
Scan type : Progressive
Bits/(Pixel*Frame) : 0.154
Stream size : 246 MiB (98%)
Writing library : x264 core 142
Encoding settings : cabac=1 / ref=4 / deblock=1:1:1 / analyse=0x3:0x113 / me=umh / subme=8 / psy=1 / psy_rd=0.40:0.00 / mixed_ref=1 / me_range=16 / chroma_me=1 / trellis=1 / 8x8dct=1 / cqm=0 / deadzone=21,11 / fast_pskip=1 / chroma_qp_offset=-2 / threads=12 / lookahead_threads=2 / sliced_threads=0 / nr=0 / decimate=1 / interlaced=0 / bluray_compat=0 / constrained_intra=0 / bframes=3 / b_pyramid=2 / b_adapt=2 / b_bias=0 / direct=3 / weightb=1 / open_gop=0 / weightp=2 / keyint=48 / keyint_min=24 / scenecut=40 / intra_refresh=0 / rc_lookahead=48 / rc=crf / mbtree=1 / crf=15.0 / qcomp=0.60 / qpmin=0 / qpmax=69 / qpstep=4 / vbv_maxrate=8000 / vbv_bufsize=12000 / crf_max=0.0 / nal_hrd=none / filler=0 / ip_ratio=1.40 / aq=1:0.60
Default : Yes
Forced : No

Audio
ID : 2
Format : AAC
Format/Info : Advanced Audio Codec
Format profile : LC
Codec ID : A_AAC-2
Duration : 4 min 29 s
Bit rate : 128 kb/s
Channel(s) : 2 channels
Channel positions : Front: L R
Sampling rate : 44.1 kHz
Frame rate : 43.066 FPS (1024 SPF)
Compression mode : Lossy
Delay relative to video : -83 ms
Stream size : 4.12 MiB (2%)
Default : Yes
Forced : No

Text #1
ID : 3
Format : ASS
Codec ID : S_TEXT/ASS
Codec ID/Info : Advanced Sub Station Alpha
Duration : 3 min 52 s
Bit rate : 75 b/s
Count of elements : 33
Compression mode : Lossless
Stream size : 2.14 KiB (0%)
Title : English(US)
Language : English
Default : Yes
Forced : No

Text #2
ID : 4
Format : ASS
Codec ID : S_TEXT/ASS
Codec ID/Info : Advanced Sub Station Alpha
Duration : 3 min 52 s
Bit rate : 73 b/s
Count of elements : 33
Compression mode : Lossless
Stream size : 2.08 KiB (0%)
Title : Deutsch
Language : German
Default : No
Forced : No

Text #3
ID : 5
Format : ASS
Codec ID : S_TEXT/ASS
Codec ID/Info : Advanced Sub Station Alpha
Duration : 3 min 52 s
Bit rate : 85 b/s
Count of elements : 44
Compression mode : Lossless
Stream size : 2.44 KiB (0%)
Title : Espanol(Espana)
Language : Spanish
Default : No
Forced : No

Text #4
ID : 6
Format : ASS
Codec ID : S_TEXT/ASS
Codec ID/Info : Advanced Sub Station Alpha
Duration : 3 min 52 s
Bit rate : 87 b/s
Count of elements : 44
Compression mode : Lossless
Stream size : 2.48 KiB (0%)
Title : Espanol
Language : Spanish
Default : No
Forced : No

Text #5
ID : 7
Format : ASS
Codec ID : S_TEXT/ASS
Codec ID/Info : Advanced Sub Station Alpha
Duration : 3 min 54 s
Bit rate : 85 b/s
Count of elements : 39
Compression mode : Lossless
Stream size : 2.44 KiB (0%)
Title : Francais(France)
Language : French
Default : No
Forced : No

Text #6
ID : 8
Format : ASS
Codec ID : S_TEXT/ASS
Codec ID/Info : Advanced Sub Station Alpha
Duration : 3 min 52 s
Bit rate : 82 b/s
Count of elements : 33
Compression mode : Lossless
Stream size : 2.33 KiB (0%)
Title : Portugues(Brasil)
Language : Portuguese
Default : No
Forced : No


Screenshots

Yami Shibai (2013-2014,2016-2019)

Yami Shibai (2013-2014,2016-2019)

Yami Shibai (2013-2014,2016-2019)


My publications | Rss Channel