Tags
Language
Tags

Youkoso Japari Park (2018) (1-22)

Posted By: Lebedev30
Youkoso Japari Park (2018) (1-22)

Youkoso Japari Park (2018) (1-22)
WEBRip | MKV | 1920x1080 | H264@4803 Kbps | 22x ~ 5mn | 22x ~150 Mb
日本語 AAC@128 Kbps | 2 channels | Subtitles: العربية, English, Español, Português, Русский, Italiano, Deutsch, Français
Genre: anthropomorphism, contemporary fantasy, juujin, short episodes, super deformed





01. Episode 1
02. Episode 2
03. Episode 3
04. Episode 4
05. Episode 5
06. Episode 6
07. Episode 7
08. Episode 8
09. Episode 9
10. Episode 10
11. Episode 11
12. Episode 12
13. Episode 13
14. Episode 14
15. Episode 15
16. Episode 16
17. Episode 17
18. Episode 18
19. Episode 19
20. Episode 20
21. Episode 21
22. Episode 22


General
Format : Matroska
Format version : Version 4 / Version 2
File size : 156 MiB
Duration : 4 min 25 s
Overall bit rate : 4 932 kb/s
Encoded date : UTC 2019-04-14 17:09:40
Writing application : mkvmerge v26.0.0 ('In The Game') 64-bit
Writing library : libebml v1.3.6 + libmatroska v1.4.9

Video
ID : 1
Format : AVC
Format/Info : Advanced Video Codec
Format profile : High@L4
Format settings : CABAC / 4 Ref Frames
Format settings, CABAC : Yes
Format settings, RefFrames : 4 frames
Codec ID : V_MPEG4/ISO/AVC
Duration : 4 min 25 s
Bit rate : 4 803 kb/s
Width : 1 920 pixels
Height : 1 080 pixels
Display aspect ratio : 16:9
Frame rate mode : Constant
Frame rate : 23.976 (24000/1001) FPS
Color space : YUV
Chroma subsampling : 4:2:0
Bit depth : 8 bits
Scan type : Progressive
Bits/(Pixel*Frame) : 0.097
Stream size : 152 MiB (97%)
Writing library : x264 core 142
Encoding settings : cabac=1 / ref=4 / deblock=1:1:1 / analyse=0x3:0x113 / me=umh / subme=8 / psy=1 / psy_rd=0.40:0.00 / mixed_ref=1 / me_range=16 / chroma_me=1 / trellis=1 / 8x8dct=1 / cqm=0 / deadzone=21,11 / fast_pskip=1 / chroma_qp_offset=-2 / threads=12 / lookahead_threads=2 / sliced_threads=0 / nr=0 / decimate=1 / interlaced=0 / bluray_compat=0 / constrained_intra=0 / bframes=3 / b_pyramid=2 / b_adapt=2 / b_bias=0 / direct=3 / weightb=1 / open_gop=0 / weightp=2 / keyint=48 / keyint_min=25 / scenecut=0 / intra_refresh=0 / rc_lookahead=48 / rc=crf / mbtree=1 / crf=15.0 / qcomp=0.60 / qpmin=0 / qpmax=69 / qpstep=4 / vbv_maxrate=8000 / vbv_bufsize=12000 / crf_max=0.0 / nal_hrd=none / filler=0 / ip_ratio=1.40 / aq=1:0.60
Default : Yes
Forced : No

Audio
ID : 2
Format : AAC
Format/Info : Advanced Audio Codec
Format profile : LC
Codec ID : A_AAC-2
Duration : 4 min 25 s
Bit rate : 128 kb/s
Channel(s) : 2 channels
Channel positions : Front: L R
Sampling rate : 44.1 kHz
Frame rate : 43.066 FPS (1024 SPF)
Compression mode : Lossy
Delay relative to video : -83 ms
Stream size : 4.05 MiB (3%)
Default : Yes
Forced : No

Text #1
ID : 3
Format : ASS
Codec ID : S_TEXT/ASS
Codec ID/Info : Advanced Sub Station Alpha
Duration : 4 min 15 s
Bit rate : 168 b/s
Count of elements : 65
Compression mode : Lossless
Stream size : 5.27 KiB (0%)
Title : English(US)
Language : English
Default : Yes
Forced : No

Text #2
ID : 4
Format : ASS
Codec ID : S_TEXT/ASS
Codec ID/Info : Advanced Sub Station Alpha
Duration : 4 min 15 s
Bit rate : 206 b/s
Count of elements : 65
Compression mode : Lossless
Stream size : 6.45 KiB (0%)
Title : Arabic
Language : Arabic
Default : No
Forced : No

Text #3
ID : 5
Format : ASS
Codec ID : S_TEXT/ASS
Codec ID/Info : Advanced Sub Station Alpha
Duration : 4 min 21 s
Bit rate : 156 b/s
Count of elements : 65
Compression mode : Lossless
Stream size : 5.00 KiB (0%)
Title : Francais(France)
Language : French
Default : No
Forced : No

Text #4
ID : 6
Format : ASS
Codec ID : S_TEXT/ASS
Codec ID/Info : Advanced Sub Station Alpha
Duration : 4 min 15 s
Bit rate : 143 b/s
Count of elements : 68
Compression mode : Lossless
Stream size : 4.47 KiB (0%)
Title : Deutsch
Language : German
Default : No
Forced : No

Text #5
ID : 7
Format : ASS
Codec ID : S_TEXT/ASS
Codec ID/Info : Advanced Sub Station Alpha
Duration : 4 min 21 s
Bit rate : 179 b/s
Count of elements : 68
Compression mode : Lossless
Stream size : 5.73 KiB (0%)
Title : Italiano
Language : Italian
Default : No
Forced : No

Text #6
ID : 8
Format : ASS
Codec ID : S_TEXT/ASS
Codec ID/Info : Advanced Sub Station Alpha
Duration : 4 min 15 s
Bit rate : 157 b/s
Count of elements : 65
Compression mode : Lossless
Stream size : 4.90 KiB (0%)
Title : Espanol(Espana)
Language : Spanish
Default : No
Forced : No

Text #7
ID : 9
Format : ASS
Codec ID : S_TEXT/ASS
Codec ID/Info : Advanced Sub Station Alpha
Duration : 4 min 15 s
Bit rate : 157 b/s
Count of elements : 65
Compression mode : Lossless
Stream size : 4.91 KiB (0%)
Title : Espanol
Language : Spanish
Default : No
Forced : No

Text #8
ID : 10
Format : ASS
Codec ID : S_TEXT/ASS
Codec ID/Info : Advanced Sub Station Alpha
Duration : 4 min 15 s
Bit rate : 169 b/s
Count of elements : 65
Compression mode : Lossless
Stream size : 5.30 KiB (0%)
Title : Portugues(Brasil)
Language : Portuguese
Default : No
Forced : No

Text #9
ID : 11
Format : ASS
Codec ID : S_TEXT/ASS
Codec ID/Info : Advanced Sub Station Alpha
Duration : 4 min 21 s
Bit rate : 271 b/s
Count of elements : 70
Compression mode : Lossless
Stream size : 8.68 KiB (0%)
Title : Russian
Language : Russian
Default : No
Forced : No


Screenshots

Youkoso Japari Park (2018) (1-22)

Youkoso Japari Park (2018) (1-22)

Youkoso Japari Park (2018) (1-22)


My publications | Rss Channel