Tags
Language
Tags

Yuragi-sou no Yuuna-san (2018)

Posted By: Lebedev30
Yuragi-sou no Yuuna-san (2018)

Yuragi-sou no Yuuna-san (2018)
WEBRip | MKV | 1920x1080 | H264@4569 Kbps | 12x ~ 25mn | 12x ~800 Mb
日本語 AAC@128 Kbps | 2 channels | Subtitles: English, Español, Português
Genre: action, adventure, comedy, deity, demon, ecchi, fantasy, harem, high school, large breasts, martial arts, ninja, pantsu, romance, school life, shounen


Description:
* Based on a comedy harem manga by Miura Tadahiro.

Homeless and haunted by ghosts, high schooler Kogarashi thinks his luck has finally turned when he finds Yuragi-sou: a cheap boarding house that was formerly a hot springs inn, now full of super sexy, scantily clad female tenants. If Kogarashi can use his spirit abilities to banish the ghost that haunts the inn, he can even live there rent-free! But when the ghost, a beautiful teenage girl named Yuuna, appears before him, Kogarashi takes pity on her and is suddenly not so sure about the exorcism. Will he help save Yuuna from becoming an evil spirit? And what supernatural secrets do the other boarders hold?






01. The Yuragi Inn`s Yuuna
02. Yuuna and the Hot Spring Ping Pong
03. Yuuna Goes to School
04. Sagiri Is Watching Youkai! / Yaya Is Cautious
05. Yuuna`s Body Measurements / Nonko`s Crunch Time
06. Ms. Nakai`s Secret Adventure / A Sweet Day Off with Yuuna
07. Yuuna`s Mysterious Disappearance
08. Oboro Stops at Nothing
09. Chisaki of the Yuragi Inn
10. The Overly Aggressive Sagiri / The Seaside School and Kogarashi
11. Dancing Cheek to Cheek with Yuuna / Sagiri and the Final Exam
12. Yuuna and the Haunted Hot Springs And…


General
Format : Matroska
Format version : Version 4 / Version 2
File size : 796 MiB
Duration : 23 min 41 s
Overall bit rate : 4 694 kb/s
Encoded date : UTC 2018-07-14 16:03:46
Writing application : mkvmerge v23.0.0 ('The Bride Said No') 32-bit
Writing library : libebml v1.3.6 + libmatroska v1.4.9

Video
ID : 1
Format : AVC
Format/Info : Advanced Video Codec
Format profile : High@L4
Format settings : CABAC / 4 Ref Frames
Format settings, CABAC : Yes
Format settings, RefFrames : 4 frames
Codec ID : V_MPEG4/ISO/AVC
Duration : 23 min 40 s
Bit rate : 4 569 kb/s
Width : 1 920 pixels
Height : 1 080 pixels
Display aspect ratio : 16:9
Frame rate mode : Constant
Frame rate : 23.976 (24000/1001) FPS
Color space : YUV
Chroma subsampling : 4:2:0
Bit depth : 8 bits
Scan type : Progressive
Bits/(Pixel*Frame) : 0.092
Stream size : 773 MiB (97%)
Writing library : x264 core 142
Encoding settings : cabac=1 / ref=4 / deblock=1:1:1 / analyse=0x3:0x113 / me=umh / subme=8 / psy=1 / psy_rd=0.40:0.00 / mixed_ref=1 / me_range=16 / chroma_me=1 / trellis=1 / 8x8dct=1 / cqm=0 / deadzone=21,11 / fast_pskip=1 / chroma_qp_offset=-2 / threads=12 / lookahead_threads=2 / sliced_threads=0 / nr=0 / decimate=1 / interlaced=0 / bluray_compat=0 / constrained_intra=0 / bframes=3 / b_pyramid=2 / b_adapt=2 / b_bias=0 / direct=3 / weightb=1 / open_gop=0 / weightp=2 / keyint=48 / keyint_min=24 / scenecut=40 / intra_refresh=0 / rc_lookahead=48 / rc=crf / mbtree=1 / crf=15.0 / qcomp=0.60 / qpmin=0 / qpmax=69 / qpstep=4 / vbv_maxrate=8000 / vbv_bufsize=12000 / crf_max=0.0 / nal_hrd=none / filler=0 / ip_ratio=1.40 / aq=1:0.60
Default : Yes
Forced : No

Audio
ID : 2
Format : AAC
Format/Info : Advanced Audio Codec
Format profile : LC
Codec ID : A_AAC-2
Duration : 23 min 40 s
Bit rate : 128 kb/s
Channel(s) : 2 channels
Channel positions : Front: L R
Sampling rate : 44.1 kHz
Frame rate : 43.066 FPS (1024 SPF)
Compression mode : Lossy
Delay relative to video : -83 ms
Stream size : 21.7 MiB (3%)
Default : Yes
Forced : No

Text #1
ID : 3
Format : ASS
Codec ID : S_TEXT/ASS
Codec ID/Info : Advanced Sub Station Alpha
Duration : 23 min 4 s
Bit rate : 109 b/s
Count of elements : 280
Compression mode : Lossless
Stream size : 18.6 KiB (0%)
Title : English(US)
Language : English
Default : Yes
Forced : No

Text #2
ID : 4
Format : ASS
Codec ID : S_TEXT/ASS
Codec ID/Info : Advanced Sub Station Alpha
Duration : 23 min 6 s
Bit rate : 96 b/s
Count of elements : 269
Compression mode : Lossless
Stream size : 16.3 KiB (0%)
Title : Espanol
Language : Spanish
Default : No
Forced : No

Text #3
ID : 5
Format : ASS
Codec ID : S_TEXT/ASS
Codec ID/Info : Advanced Sub Station Alpha
Duration : 23 min 4 s
Bit rate : 103 b/s
Count of elements : 279
Compression mode : Lossless
Stream size : 17.6 KiB (0%)
Title : Portugues(Brasil)
Language : Portuguese
Default : No
Forced : No


Screenshots

Yuragi-sou no Yuuna-san (2018)

Yuragi-sou no Yuuna-san (2018)

Yuragi-sou no Yuuna-san (2018)


My publications | Rss Channel