Tags
Language
Tags

Carole & Tuesday (2019) (18-24)

Posted By: Lebedev30
Carole & Tuesday (2019) (18-24)

Carole & Tuesday (2019) (18-24)
WEBRip | MKV | 1920x1080 | H264@5800 Kbps | 7x ~ 25mn | 7x ~800 Mb
日本語 E-AC-3@128 Kbps | 2 channels | Subtitles: 日本語
Genre: music, musical band, the arts


Description:
Fifty years have passed since mankind began migrating to the new frontier: Mars. It's an age where most culture is produced by AI, and people are content to be passive consumers.

There's a girl. Scraping a living in the metropolis of Alba City, she's working part time while trying to become a musician. She's always felt like something is missing. Her name is Carole.

There's a girl. Born to a wealthy family in the provincial town of Herschel City, she dreams of becoming a musician, but nobody around her understands. She feels like the loneliest person in the world. Her name is Tuesday.

A chance meeting brings them together. They want to sing. They want to make music. Together, they feel like they just might have a chance. The two of them may only create a tiny wave. But that wave will eventually grow into something larger…






18. Only Love Can Break Your Heart
19. People Get Ready
20. Immigrant Song
21. It`s Too Late
22. Just Like Heaven
23. Don`t Stop Believin`
24. A Change Is Gonna Come


General
Format : Matroska
Format version : Version 4 / Version 2
File size : 965 MiB
Duration : 22 min 52 s
Overall bit rate mode : Variable
Overall bit rate : 5 901 kb/s
Encoded date : UTC 2019-08-22 07:33:42
Writing application : mkvmerge v34.0.0 ('Sight and Seen') 64-bit
Writing library : libebml v1.3.7 + libmatroska v1.5.0

Video
ID : 1
Format : AVC
Format/Info : Advanced Video Codec
Format profile : Main@L4
Format settings : CABAC / 3 Ref Frames
Format settings, CABAC : Yes
Format settings, RefFrames : 3 frames
Codec ID : V_MPEG4/ISO/AVC
Duration : 22 min 52 s
Bit rate mode : Variable
Bit rate : 5 800 kb/s
Maximum bit rate : 8 700 kb/s
Width : 1 920 pixels
Height : 1 080 pixels
Display aspect ratio : 16:9
Frame rate mode : Constant
Frame rate : 23.976 (24000/1001) FPS
Color space : YUV
Chroma subsampling : 4:2:0
Bit depth : 8 bits
Scan type : Progressive
Bits/(Pixel*Frame) : 0.117
Stream size : 944 MiB (98%)
Writing library : x264 core 148 r2715 7e75228
Encoding settings : cabac=1 / ref=3 / deblock=1:0:0 / analyse=0x1:0x111 / me=umh / subme=10 / psy=1 / psy_rd=1.00:0.00 / mixed_ref=1 / me_range=24 / chroma_me=1 / trellis=2 / 8x8dct=0 / cqm=0 / deadzone=21,11 / fast_pskip=1 / chroma_qp_offset=-2 / threads=8 / lookahead_threads=1 / sliced_threads=0 / nr=0 / decimate=1 / interlaced=0 / bluray_compat=0 / stitchable=1 / constrained_intra=0 / bframes=2 / b_pyramid=0 / b_adapt=2 / b_bias=0 / direct=3 / weightb=1 / open_gop=0 / weightp=2 / keyint=250 / keyint_min=23 / scenecut=0 / intra_refresh=0 / rc_lookahead=48 / rc=2pass / mbtree=1 / bitrate=5800 / ratetol=1.0 / qcomp=0.50 / qpmin=6 / qpmax=51 / qpstep=4 / cplxblur=20.0 / qblur=0.5 / vbv_maxrate=8700 / vbv_bufsize=11600 / nal_hrd=vbr / filler=0 / ip_ratio=1.40 / aq=1:1.00
Language : Japanese
Default : Yes
Forced : No

Audio
ID : 2
Format : E-AC-3
Format/Info : Enhanced Audio Coding 3
Codec ID : A_EAC3
Duration : 22 min 52 s
Bit rate mode : Constant
Bit rate : 128 kb/s
Channel(s) : 2 channels
Channel positions : Front: L R
Sampling rate : 48.0 kHz
Frame rate : 187.500 FPS (256 SPF)
Compression mode : Lossy
Stream size : 20.9 MiB (2%)
Language : Japanese
Service kind : Complete Main
Default : Yes
Forced : No

Text
ID : 3
Format : ASS
Codec ID : S_TEXT/ASS
Codec ID/Info : Advanced Sub Station Alpha
Duration : 22 min 46 s
Bit rate : 135 b/s
Count of elements : 349
Compression mode : Lossless
Stream size : 22.7 KiB (0%)
Language : Japanese
Default : Yes
Forced : No


Screenshots

Carole & Tuesday (2019) (18-24)

Carole & Tuesday (2019) (18-24)

Carole & Tuesday (2019) (18-24)


My publications | Rss Channel