Tags
Language
Tags

Meitantei Conan (1996-?) (952-958)

Posted By: Lebedev30
Meitantei Conan (1996-?) (952-958)

Meitantei Conan (1996-?) (952-958)
WEBRip | MKV | 1920x1080 | H264@8000 Kbps | 7x ~ 25mn | 7x ~1.3 Gb
日本語 AAC@128 Kbps | 2 channels | Subtitles: English
Genre: comedy, detective, romance, shounen, thriller


Description:
Kudou Shin'ichi is a famous 17-year-old high school detective who helps the police solve cases. While investigating a mysterious organization, he was knocked unconscious by one of them, and an experimental poison was forced down his throat. Instead of killing him, however, the drug shrunk him into a little kid. In order to prevent the men in black who did this to him from hurting his friends and family, he changed his name to Edogawa Conan and took on the identity of a gifted primary school student who solves mysteries and crimes through reasoning, logic, the help of his friends and some nifty gadgets Dr. Agasa Hiroshi invented for him. Now, he lives with his childhood friend, Mouri Ran, and her father, detective Mouri Kogorou, without them knowing about his situation, and carries on his investigation of the organization that is still out to kill him.






952. The Unsolved Cocktail Case (Part 1)
953. The Unsolved Cocktail Case (Part 2)
954. The Unsolved Cocktail Case (Part 3)
955. The Secret of the Insect Man
956. The Mystery-Solving Water Taxi (Part 1)
957. The Mystery-Solving Water Taxi (Part 2)
958. The Poodle and the Shotgun (Part 1)


General
Format : Matroska
Format version : Version 4 / Version 2
File size : 1.38 GiB
Duration : 24 min 41 s
Overall bit rate : 7 977 kb/s
Encoded date : UTC 2019-08-31 11:34:18
Writing application : mkvmerge v26.0.0 ('In The Game') 64-bit
Writing library : libebml v1.3.6 + libmatroska v1.4.9

Video
ID : 1
Format : AVC
Format/Info : Advanced Video Codec
Format profile : High@L4
Format settings : CABAC / 4 Ref Frames
Format settings, CABAC : Yes
Format settings, RefFrames : 4 frames
Codec ID : V_MPEG4/ISO/AVC
Duration : 24 min 40 s
Bit rate : 8 000 kb/s
Width : 1 920 pixels
Height : 1 080 pixels
Display aspect ratio : 16:9
Frame rate mode : Constant
Frame rate : 23.976 (24000/1001) FPS
Color space : YUV
Chroma subsampling : 4:2:0
Bit depth : 8 bits
Scan type : Progressive
Bits/(Pixel*Frame) : 0.161
Stream size : 1.35 GiB (98%)
Writing library : x264 core 142
Encoding settings : cabac=1 / ref=4 / deblock=1:1:1 / analyse=0x3:0x113 / me=umh / subme=8 / psy=1 / psy_rd=0.40:0.00 / mixed_ref=1 / me_range=16 / chroma_me=1 / trellis=1 / 8x8dct=1 / cqm=0 / deadzone=21,11 / fast_pskip=1 / chroma_qp_offset=-2 / threads=12 / lookahead_threads=2 / sliced_threads=0 / nr=0 / decimate=1 / interlaced=0 / bluray_compat=0 / constrained_intra=0 / bframes=0 / weightp=2 / keyint=96 / keyint_min=48 / scenecut=40 / intra_refresh=0 / rc_lookahead=48 / rc=2pass / mbtree=1 / bitrate=8000 / ratetol=1.0 / qcomp=0.60 / qpmin=0 / qpmax=69 / qpstep=4 / cplxblur=20.0 / qblur=0.5 / vbv_maxrate=12000 / vbv_bufsize=18000 / nal_hrd=none / filler=0 / ip_ratio=1.40 / aq=1:0.60
Default : Yes
Forced : No

Audio
ID : 2
Format : AAC
Format/Info : Advanced Audio Codec
Format profile : LC
Codec ID : A_AAC-2
Duration : 24 min 40 s
Bit rate : 128 kb/s
Channel(s) : 2 channels
Channel positions : Front: L R
Sampling rate : 44.1 kHz
Frame rate : 43.066 FPS (1024 SPF)
Compression mode : Lossy
Stream size : 22.6 MiB (2%)
Default : Yes
Forced : No

Text
ID : 3
Format : ASS
Codec ID : S_TEXT/ASS
Codec ID/Info : Advanced Sub Station Alpha
Duration : 24 min 11 s
Bit rate : 133 b/s
Count of elements : 365
Compression mode : Lossless
Stream size : 23.6 KiB (0%)
Title : English(US)
Language : English
Default : Yes
Forced : No


Screenshots

Meitantei Conan (1996-?) (952-958)

Meitantei Conan (1996-?) (952-958)

Meitantei Conan (1996-?) (952-958)


My publications | Rss Channel