Tags
Language
Tags

Nanatsu no Taizai: Kamigami no Gekirin (2019) (3-6)

Posted By: Lebedev30
Nanatsu no Taizai: Kamigami no Gekirin (2019) (3-6)

Nanatsu no Taizai: Kamigami no Gekirin (2019) (3-6)
WEBRip | MKV | 1920x1080 | H264@7676 Kbps | 4x ~ 25mn | 4x ~1.3 Gb
日本語 E-AC-3@224 Kbps | 2 channels | Subtitles: English, 日本語
Genre: Action, Adventure


Description:
Note: The first two episodes received an early screening at a special event held at Kanda Myojin Hall, Tokyo, on 22.09.2019.






03. Let There Be Light
04. The Ten Commandments vs the Four Archangels
05. Emotional Maelstrom
06. We Call That Love


General
Format : Matroska
Format version : Version 4 / Version 2
File size : 1.36 GiB
Duration : 24 min 9 s
Overall bit rate : 8 030 kb/s
Encoded date : UTC 2019-10-23 17:49:20
Writing application : mkvmerge v34.0.0 ('Sight and Seen') 64-bit
Writing library : libebml v1.3.7 + libmatroska v1.5.0

Video
ID : 2
Format : AVC
Format/Info : Advanced Video Codec
Format profile : High@L4
Format settings : CABAC / 4 Ref Frames
Format settings, CABAC : Yes
Format settings, RefFrames : 4 frames
Codec ID : V_MPEG4/ISO/AVC
Duration : 24 min 9 s
Bit rate mode : Constant
Bit rate : 7 676 kb/s
Nominal bit rate : 10 000 kb/s
Width : 1 920 pixels
Height : 1 080 pixels
Display aspect ratio : 16:9
Frame rate mode : Constant
Frame rate : 23.976 (24000/1001) FPS
Color space : YUV
Chroma subsampling : 4:2:0
Bit depth : 8 bits
Scan type : Progressive
Bits/(Pixel*Frame) : 0.154
Stream size : 1.30 GiB (96%)
Language : Japanese
Default : Yes
Forced : No
Color range : Limited
Color primaries : BT.709
Transfer characteristics : BT.709
Matrix coefficients : BT.709

Audio #1
ID : 3
Format : E-AC-3
Format/Info : Enhanced Audio Coding 3
Codec ID : A_EAC3
Duration : 24 min 9 s
Bit rate mode : Constant
Bit rate : 224 kb/s
Channel(s) : 2 channels
Channel positions : Front: L R
Sampling rate : 48.0 kHz
Frame rate : 187.500 FPS (256 SPF)
Compression mode : Lossy
Stream size : 38.7 MiB (3%)
Language : Japanese
Service kind : Complete Main
Default : Yes
Forced : No

Audio #2
ID : 4
Format : AAC
Format/Info : Advanced Audio Codec
Format profile : LC
Codec ID : A_AAC-2
Duration : 24 min 9 s
Bit rate : 128 kb/s
Channel(s) : 2 channels
Channel positions : Front: L R
Sampling rate : 48.0 kHz
Frame rate : 46.875 FPS (1024 SPF)
Compression mode : Lossy
Stream size : 22.1 MiB (2%)
Language : Japanese
Default : No
Forced : No

Text
ID : 1
Format : ASS
Codec ID : S_TEXT/ASS
Codec ID/Info : Advanced Sub Station Alpha
Duration : 24 min 6 s
Bit rate : 122 b/s
Count of elements : 369
Compression mode : Lossless
Stream size : 21.6 KiB (0%)
Language : English
Default : Yes
Forced : No


Screenshots

Nanatsu no Taizai: Kamigami no Gekirin (2019) (3-6)

Nanatsu no Taizai: Kamigami no Gekirin (2019) (3-6)

Nanatsu no Taizai: Kamigami no Gekirin (2019) (3-6)


My publications | Rss Channel