Tags
Language
Tags

No Guns Life (2019) (3-6)

Posted By: Lebedev30
No Guns Life (2019) (3-6)

No Guns Life (2019) (3-6)
WEBRip | MKV | 1920x1080 | H264@8000 Kbps | 4x ~ 25mn | 4x ~1.3 Gb
日本語 AAC@253 Kbps | 2 channels | Subtitles: English
Genre: cyberpunk


Description:
* Based on an action sci-fi seinen manga series by Karasuma Tasuku.

Ex-soldier Inui Juuzou has one question - who turned him into a cyborg and erased his memories?

After the war, cyborg soldiers known as the Extended were discharged. Inui Juuzou is one of them, a man whose body was transformed, his head replaced with a giant gun! With no memory of his previous life - or who replaced his head and why - Inui now scratches out a living in the dark streets of the city as a Resolver, taking on cases involving the Extended.

When a fellow Extended showed up in Inui's office - on the run from the Security Bureau with a kidnapped child in tow and asking for help - Inui should have just thrown the guy out. But Inui's loyalty to a brother Extended makes him take the job. Keeping the child safe won't be easy, since everyone seems to want to grab him, from street punks to the megacorporation Berühren, who have sent out a special agent that knows exactly how to deal with the Extended…






03. Puppet
04. Trigger
05. EMS
06. Hero


General
Format : Matroska
Format version : Version 4 / Version 2
File size : 1.35 GiB
Duration : 23 min 42 s
Overall bit rate : 8 125 kb/s
Encoded date : UTC 2019-10-24 17:52:11
Writing application : mkvmerge v34.0.0 ('Sight and Seen') 64-bit
Writing library : libebml v1.3.7 + libmatroska v1.5.0

Video
ID : 2
Format : AVC
Format/Info : Advanced Video Codec
Format profile : High@L4
Format settings : CABAC / 4 Ref Frames
Format settings, CABAC : Yes
Format settings, RefFrames : 4 frames
Codec ID : V_MPEG4/ISO/AVC
Duration : 23 min 42 s
Bit rate : 8 000 kb/s
Width : 1 920 pixels
Height : 1 080 pixels
Display aspect ratio : 16:9
Frame rate mode : Constant
Frame rate : 23.976 (24000/1001) FPS
Color space : YUV
Chroma subsampling : 4:2:0
Bit depth : 8 bits
Scan type : Progressive
Bits/(Pixel*Frame) : 0.161
Stream size : 1.30 GiB (97%)
Title : Funimation
Writing library : x264 core 157 r2948 dada181
Encoding settings : cabac=1 / ref=1 / deblock=1:0:0 / analyse=0x3:0x113 / me=hex / subme=7 / psy=1 / psy_rd=1.00:0.00 / mixed_ref=0 / me_range=16 / chroma_me=1 / trellis=1 / 8x8dct=1 / cqm=0 / deadzone=21,11 / fast_pskip=1 / chroma_qp_offset=-2 / threads=24 / lookahead_threads=4 / sliced_threads=0 / nr=0 / decimate=1 / interlaced=0 / bluray_compat=0 / constrained_intra=0 / bframes=2 / b_pyramid=2 / b_adapt=1 / b_bias=0 / direct=1 / weightb=1 / open_gop=0 / weightp=2 / keyint=48 / keyint_min=4 / scenecut=40 / intra_refresh=0 / rc_lookahead=40 / rc=cbr / mbtree=1 / bitrate=8000 / ratetol=1.0 / qcomp=0.60 / qpmin=0 / qpmax=69 / qpstep=4 / vbv_maxrate=8000 / vbv_bufsize=24000 / nal_hrd=none / filler=0 / ip_ratio=1.40 / aq=1:1.00
Default : Yes
Forced : No

Audio
ID : 3
Format : AAC
Format/Info : Advanced Audio Codec
Format profile : LC
Codec ID : A_AAC-2
Duration : 23 min 42 s
Bit rate : 253 kb/s
Channel(s) : 2 channels
Channel positions : Front: L R
Sampling rate : 48.0 kHz
Frame rate : 46.875 FPS (1024 SPF)
Compression mode : Lossy
Delay relative to video : -43 ms
Stream size : 43.0 MiB (3%)
Language : Japanese
Default : Yes
Forced : No

Text
ID : 1
Format : ASS
Codec ID : S_TEXT/ASS
Codec ID/Info : Advanced Sub Station Alpha
Duration : 23 min 27 s
Bit rate : 92 b/s
Count of elements : 267
Compression mode : Lossless
Stream size : 15.9 KiB (0%)
Language : English
Default : Yes
Forced : No


Screenshots

No Guns Life (2019) (3-6)

No Guns Life (2019) (3-6)

No Guns Life (2019) (3-6)


My publications | Rss Channel