Tags
Language
Tags

Null Peta (2019) (4-6)

Posted By: Lebedev30
Null Peta (2019) (4-6)

Null Peta (2019) (4-6)
WEBRip | MKV | 1920x1080 | H264@8000 Kbps | 3x ~ 6mn | 3x ~300 Mb
日本語 AAC@128 Kbps | 2 channels | Subtitles: العربية, English, Español, Português, Русский, Italiano, Deutsch, Français





04. Big Sister, Do I Have to Go to Space?
05. My Big Sister Is Dead?!
06. Big Sister, What`s Your Favorite Snow Cone Flavor?


General
Format : Matroska
Format version : Version 4 / Version 2
File size : 312 MiB
Duration : 5 min 22 s
Overall bit rate : 8 115 kb/s
Encoded date : UTC 2019-10-25 16:02:16
Writing application : mkvmerge v26.0.0 ('In The Game') 64-bit
Writing library : libebml v1.3.6 + libmatroska v1.4.9

Video
ID : 1
Format : AVC
Format/Info : Advanced Video Codec
Format profile : High@L4
Format settings : CABAC / 4 Ref Frames
Format settings, CABAC : Yes
Format settings, RefFrames : 4 frames
Format settings, GOP : N=1
Codec ID : V_MPEG4/ISO/AVC
Duration : 5 min 21 s
Bit rate : 8 000 kb/s
Width : 1 920 pixels
Height : 1 080 pixels
Display aspect ratio : 16:9
Frame rate mode : Constant
Frame rate : 23.976 (24000/1001) FPS
Color space : YUV
Chroma subsampling : 4:2:0
Bit depth : 8 bits
Scan type : Progressive
Bits/(Pixel*Frame) : 0.161
Stream size : 307 MiB (98%)
Writing library : x264 core 142
Encoding settings : cabac=1 / ref=4 / deblock=1:1:1 / analyse=0x3:0x113 / me=umh / subme=8 / psy=1 / psy_rd=0.40:0.00 / mixed_ref=1 / me_range=16 / chroma_me=1 / trellis=1 / 8x8dct=1 / cqm=0 / deadzone=21,11 / fast_pskip=1 / chroma_qp_offset=-2 / threads=12 / lookahead_threads=2 / sliced_threads=0 / nr=0 / decimate=1 / interlaced=0 / bluray_compat=0 / constrained_intra=0 / bframes=0 / weightp=2 / keyint=96 / keyint_min=48 / scenecut=40 / intra_refresh=0 / rc_lookahead=48 / rc=2pass / mbtree=1 / bitrate=8000 / ratetol=1.0 / qcomp=0.60 / qpmin=0 / qpmax=69 / qpstep=4 / cplxblur=20.0 / qblur=0.5 / vbv_maxrate=12000 / vbv_bufsize=18000 / nal_hrd=none / filler=0 / ip_ratio=1.40 / aq=1:0.60
Default : Yes
Forced : No

Audio
ID : 2
Format : AAC
Format/Info : Advanced Audio Codec
Format profile : LC
Codec ID : A_AAC-2
Duration : 5 min 22 s
Bit rate : 128 kb/s
Channel(s) : 2 channels
Channel positions : Front: L R
Sampling rate : 44.1 kHz
Frame rate : 43.066 FPS (1024 SPF)
Compression mode : Lossy
Stream size : 4.91 MiB (2%)
Default : Yes
Forced : No

Text #1
ID : 3
Format : ASS
Codec ID : S_TEXT/ASS
Codec ID/Info : Advanced Sub Station Alpha
Duration : 5 min 14 s
Bit rate : 106 b/s
Count of elements : 55
Compression mode : Lossless
Stream size : 4.11 KiB (0%)
Title : English(US)
Language : English
Default : Yes
Forced : No

Text #2
ID : 4
Format : ASS
Codec ID : S_TEXT/ASS
Codec ID/Info : Advanced Sub Station Alpha
Duration : 5 min 16 s
Bit rate : 130 b/s
Count of elements : 56
Compression mode : Lossless
Stream size : 5.04 KiB (0%)
Title : Arabic
Language : Arabic
Default : No
Forced : No

Text #3
ID : 5
Format : ASS
Codec ID : S_TEXT/ASS
Codec ID/Info : Advanced Sub Station Alpha
Duration : 5 min 14 s
Bit rate : 85 b/s
Count of elements : 52
Compression mode : Lossless
Stream size : 3.29 KiB (0%)
Title : Francais(France)
Language : French
Default : No
Forced : No

Text #4
ID : 6
Format : ASS
Codec ID : S_TEXT/ASS
Codec ID/Info : Advanced Sub Station Alpha
Duration : 5 min 14 s
Bit rate : 115 b/s
Count of elements : 55
Compression mode : Lossless
Stream size : 4.42 KiB (0%)
Title : Deutsch
Language : German
Default : No
Forced : No

Text #5
ID : 7
Format : ASS
Codec ID : S_TEXT/ASS
Codec ID/Info : Advanced Sub Station Alpha
Duration : 5 min 14 s
Bit rate : 88 b/s
Count of elements : 63
Compression mode : Lossless
Stream size : 3.41 KiB (0%)
Title : Italiano
Language : Italian
Default : No
Forced : No

Text #6
ID : 8
Format : ASS
Codec ID : S_TEXT/ASS
Codec ID/Info : Advanced Sub Station Alpha
Duration : 5 min 14 s
Bit rate : 77 b/s
Count of elements : 51
Compression mode : Lossless
Stream size : 2.96 KiB (0%)
Title : Espanol(Espana)
Language : Spanish
Default : No
Forced : No

Text #7
ID : 9
Format : ASS
Codec ID : S_TEXT/ASS
Codec ID/Info : Advanced Sub Station Alpha
Duration : 5 min 14 s
Bit rate : 75 b/s
Count of elements : 51
Compression mode : Lossless
Stream size : 2.91 KiB (0%)
Title : Espanol
Language : Spanish
Default : No
Forced : No

Text #8
ID : 10
Format : ASS
Codec ID : S_TEXT/ASS
Codec ID/Info : Advanced Sub Station Alpha
Duration : 5 min 14 s
Bit rate : 106 b/s
Count of elements : 55
Compression mode : Lossless
Stream size : 4.07 KiB (0%)
Title : Portugues(Brasil)
Language : Portuguese
Default : No
Forced : No

Text #9
ID : 11
Format : ASS
Codec ID : S_TEXT/ASS
Codec ID/Info : Advanced Sub Station Alpha
Duration : 5 min 14 s
Bit rate : 102 b/s
Count of elements : 51
Compression mode : Lossless
Stream size : 3.93 KiB (0%)
Title : Russian
Language : Russian
Default : No
Forced : No


Screenshots

Null Peta (2019) (4-6)

Null Peta (2019) (4-6)

Null Peta (2019) (4-6)


My publications | Rss Channel