Tags
Language
Tags

Rifle Is Beautiful (2019) (2-5)

Posted By: Lebedev30
Rifle Is Beautiful (2019) (2-5)

Rifle Is Beautiful (2019) (2-5)
WEBRip | MKV | 1920x1080 | H264@8000 Kbps | 4x ~ 25mn | 4x ~1.3 Gb
日本語 AAC@128 Kbps | 2 channels | Subtitles: English
Genre: Comedy, Sport


Description:
* Based on a school life seinen 4-koma manga by Salmi Akki.

Kokura Hikari is a first-year high school girl who loves rifle shooting. She entered Chidori High School because it had a shooting club, but finds that the club had been disbanded. She had only one day to find enough members to reform the club, but luckily was able to find three other first-year girls who she had met at a competition in middle school.

Thus begins the daily activities of the Chidori High Shooting Club.






02. Club Is Funny
03. Our Competitors Are Powerful
04. Our Advisor Is a Beginner
05. Qualifiers Are Exciting


General
Format : Matroska
Format version : Version 4 / Version 2
File size : 1.35 GiB
Duration : 23 min 50 s
Overall bit rate : 8 093 kb/s
Encoded date : UTC 2019-10-20 16:02:23
Writing application : mkvmerge v34.0.0 ('Sight and Seen') 64-bit
Writing library : libebml v1.3.7 + libmatroska v1.5.0

Video
ID : 2
Format : AVC
Format/Info : Advanced Video Codec
Format profile : High@L4
Format settings : CABAC / 4 Ref Frames
Format settings, CABAC : Yes
Format settings, RefFrames : 4 frames
Codec ID : V_MPEG4/ISO/AVC
Duration : 23 min 50 s
Bit rate : 8 000 kb/s
Width : 1 920 pixels
Height : 1 080 pixels
Display aspect ratio : 16:9
Frame rate mode : Constant
Frame rate : 23.976 (24000/1001) FPS
Color space : YUV
Chroma subsampling : 4:2:0
Bit depth : 8 bits
Scan type : Progressive
Bits/(Pixel*Frame) : 0.161
Stream size : 1.33 GiB (98%)
Writing library : x264 core 142
Encoding settings : cabac=1 / ref=4 / deblock=1:1:1 / analyse=0x3:0x113 / me=umh / subme=8 / psy=1 / psy_rd=0.40:0.00 / mixed_ref=1 / me_range=16 / chroma_me=1 / trellis=1 / 8x8dct=1 / cqm=0 / deadzone=21,11 / fast_pskip=1 / chroma_qp_offset=-2 / threads=12 / lookahead_threads=2 / sliced_threads=0 / nr=0 / decimate=1 / interlaced=0 / bluray_compat=0 / constrained_intra=0 / bframes=0 / weightp=2 / keyint=96 / keyint_min=48 / scenecut=40 / intra_refresh=0 / rc_lookahead=48 / rc=2pass / mbtree=1 / bitrate=8000 / ratetol=1.0 / qcomp=0.60 / qpmin=0 / qpmax=69 / qpstep=4 / cplxblur=20.0 / qblur=0.5 / vbv_maxrate=12000 / vbv_bufsize=18000 / nal_hrd=none / filler=0 / ip_ratio=1.40 / aq=1:0.60
Default : Yes
Forced : No

Audio
ID : 3
Format : AAC
Format/Info : Advanced Audio Codec
Format profile : LC
Codec ID : A_AAC-2
Duration : 23 min 50 s
Bit rate : 128 kb/s
Channel(s) : 2 channels
Channel positions : Front: L R
Sampling rate : 44.1 kHz
Frame rate : 43.066 FPS (1024 SPF)
Compression mode : Lossy
Stream size : 21.8 MiB (2%)
Default : Yes
Forced : No

Text
ID : 1
Format : ASS
Codec ID : S_TEXT/ASS
Codec ID/Info : Advanced Sub Station Alpha
Duration : 23 min 39 s
Bit rate : 113 b/s
Count of elements : 357
Compression mode : Lossless
Stream size : 19.7 KiB (0%)
Language : English
Default : Yes
Forced : No


Screenshots

Rifle Is Beautiful (2019) (2-5)

Rifle Is Beautiful (2019) (2-5)

Rifle Is Beautiful (2019) (2-5)


My publications | Rss Channel