Tags
Language
Tags

Shinchou Yuusha: Kono Yuusha ga Ore Tsueee Kuse ni Shinchou Sugiru (2019) (3-6)

Posted By: Lebedev30
Shinchou Yuusha: Kono Yuusha ga Ore Tsueee Kuse ni Shinchou Sugiru (2019) (3-6)

Shinchou Yuusha: Kono Yuusha ga Ore Tsueee Kuse ni Shinchou Sugiru (2019) (3-6)
WEBRip | MKV | 1920x1080 | H264@7597 Kbps | 4x ~ 25mn | 4x ~1.3 Gb
日本語 AAC@253 Kbps | 2 channels | Subtitles: English
Genre: fantasy


Description:
* Based on a light novel series written by Tsuchihi Light and illustrated by Toyota Saori.

Young goddess Ristarte isn't sure if she lucked out or not when she's chosen as the goddess in charge of finding a hero to save S-ranked world Gaeabrande. She's only summoned five heroes before, and never for a world of this difficulty. Because of the prevalence and popularity of isekai novels in Japan, she decides to summon a Japanese hero to help her, and eventually stumbles across the stats of Ryuuguuin Seiya, who stands out not only for his unusual name, but also his high starting scores. Rista quickly summons him, but it turns out that she really should have read the fine print – Seiya may be powerful, but he's also overly cautious to a fault, refusing to even set foot in Gaeabrande until he's exercised his way to a higher level. When he won't even eat the food Rista makes for him in case she might be trying to poison him, Rista realizes that she may be in trouble with this guy…






03. This Hero Is Too Self-Serving
04. I So Don`t Need Any Allies
05. This Goddess Is Too Spooky
06. The Great Dragon Mother Is Too Sneaky


General
Format : Matroska
Format version : Version 4 / Version 2
File size : 1.31 GiB
Duration : 23 min 50 s
Overall bit rate : 7 853 kb/s
Encoded date : UTC 2019-10-23 17:13:51
Writing application : mkvmerge v34.0.0 ('Sight and Seen') 64-bit
Writing library : libebml v1.3.7 + libmatroska v1.5.0

Video
ID : 1
Format : AVC
Format/Info : Advanced Video Codec
Format profile : High@L4
Format settings : CABAC / 4 Ref Frames
Format settings, CABAC : Yes
Format settings, RefFrames : 4 frames
Codec ID : V_MPEG4/ISO/AVC
Duration : 23 min 50 s
Bit rate : 7 597 kb/s
Nominal bit rate : 8 000 kb/s
Width : 1 920 pixels
Height : 1 080 pixels
Display aspect ratio : 16:9
Frame rate mode : Constant
Frame rate : 23.976 (24000/1001) FPS
Color space : YUV
Chroma subsampling : 4:2:0
Bit depth : 8 bits
Scan type : Progressive
Bits/(Pixel*Frame) : 0.153
Stream size : 1.26 GiB (97%)
Writing library : x264 core 157 r2948 dada181
Encoding settings : cabac=1 / ref=1 / deblock=1:0:0 / analyse=0x3:0x113 / me=hex / subme=7 / psy=1 / psy_rd=1.00:0.00 / mixed_ref=0 / me_range=16 / chroma_me=1 / trellis=1 / 8x8dct=1 / cqm=0 / deadzone=21,11 / fast_pskip=1 / chroma_qp_offset=-2 / threads=24 / lookahead_threads=4 / sliced_threads=0 / nr=0 / decimate=1 / interlaced=0 / bluray_compat=0 / constrained_intra=0 / bframes=2 / b_pyramid=2 / b_adapt=1 / b_bias=0 / direct=1 / weightb=1 / open_gop=0 / weightp=2 / keyint=48 / keyint_min=4 / scenecut=40 / intra_refresh=0 / rc_lookahead=40 / rc=cbr / mbtree=1 / bitrate=8000 / ratetol=1.0 / qcomp=0.60 / qpmin=0 / qpmax=69 / qpstep=4 / vbv_maxrate=8000 / vbv_bufsize=24000 / nal_hrd=none / filler=0 / ip_ratio=1.40 / aq=1:1.00
Language : Japanese
Default : Yes
Forced : No

Audio
ID : 2
Format : AAC
Format/Info : Advanced Audio Codec
Format profile : LC
Codec ID : A_AAC-2
Duration : 23 min 50 s
Bit rate : 253 kb/s
Channel(s) : 2 channels
Channel positions : Front: L R
Sampling rate : 48.0 kHz
Frame rate : 46.875 FPS (1024 SPF)
Compression mode : Lossy
Delay relative to video : -43 ms
Stream size : 43.2 MiB (3%)
Language : Japanese
Default : Yes
Forced : No

Text
ID : 3
Format : ASS
Codec ID : S_TEXT/ASS
Codec ID/Info : Advanced Sub Station Alpha
Duration : 20 min 35 s
Bit rate : 159 b/s
Count of elements : 397
Compression mode : Lossless
Stream size : 24.1 KiB (0%)
Language : English
Default : Yes
Forced : No


Screenshots

Shinchou Yuusha: Kono Yuusha ga Ore Tsueee Kuse ni Shinchou Sugiru (2019) (3-6)

Shinchou Yuusha: Kono Yuusha ga Ore Tsueee Kuse ni Shinchou Sugiru (2019) (3-6)

Shinchou Yuusha: Kono Yuusha ga Ore Tsueee Kuse ni Shinchou Sugiru (2019) (3-6)


My publications | Rss Channel