Tags
Language
Tags

Shokugeki no Souma: Shin no Sara (2019) (3-5)

Posted By: Lebedev30
Shokugeki no Souma: Shin no Sara (2019) (3-5)

Shokugeki no Souma: Shin no Sara (2019) (3-5)
WEBRip | MKV | 1920x1080 | H264@8000 Kbps | 3x ~ 25mn | 3x ~1.3 Gb
日本語 AAC@128 Kbps | 2 channels | Subtitles: English, Español, Português, Русский, Italiano, Deutsch, Français
Genre: Comedy, Drama


Description:
Yukihira Souma, who has been honing his cooking skills at his family diner "Yukihira" all his life, enters a super elite culinary academy called "Totsuki Saryo Culinary Academy". He improves as a chef through interactions with other chefs in and out of the academy but everything changes when Nakiri Azami has taken over the chief in command position at the academy. With the Central Gourmet Organization ruling over the academy, the students are no longer allowed to cook freely. Souma and friends stood against the regime and as a result, they were labeled as rebels of the Academy!

Season of the Advancement Exams arrive. They managed to pass the exams despite some interference but Cenrral Gourmet Organization will stop at nothing! Finally, some of Souma's friends lose and are sentenced to be expelled! In order to breakthrough this situation, Souma and the remaining rebels challenge new Council members and Azami regime to Régiment du Cuisine!

The 1st BOUT was won by the rebels with ease but this is only the beginning of the battle to decide their fates. 2nd BOUT is about to begin!

Will Souma and others be able to take the seats at the Council and save their friends!?






03. Hope in Solidarity
04. Aim for Victory!
05. You`re Through


General
Format : Matroska
Format version : Version 4 / Version 2
File size : 1.34 GiB
Duration : 23 min 41 s
Overall bit rate : 8 103 kb/s
Encoded date : UTC 2019-10-25 16:34:29
Writing application : mkvmerge v26.0.0 ('In The Game') 64-bit
Writing library : libebml v1.3.6 + libmatroska v1.4.9

Video
ID : 1
Format : AVC
Format/Info : Advanced Video Codec
Format profile : High@L4
Format settings : CABAC / 4 Ref Frames
Format settings, CABAC : Yes
Format settings, RefFrames : 4 frames
Codec ID : V_MPEG4/ISO/AVC
Duration : 23 min 39 s
Bit rate : 8 000 kb/s
Width : 1 920 pixels
Height : 1 080 pixels
Display aspect ratio : 16:9
Frame rate mode : Constant
Frame rate : 23.976 (24000/1001) FPS
Color space : YUV
Chroma subsampling : 4:2:0
Bit depth : 8 bits
Scan type : Progressive
Bits/(Pixel*Frame) : 0.161
Stream size : 1.32 GiB (98%)
Writing library : x264 core 142
Encoding settings : cabac=1 / ref=4 / deblock=1:1:1 / analyse=0x3:0x113 / me=umh / subme=8 / psy=1 / psy_rd=0.40:0.00 / mixed_ref=1 / me_range=16 / chroma_me=1 / trellis=1 / 8x8dct=1 / cqm=0 / deadzone=21,11 / fast_pskip=1 / chroma_qp_offset=-2 / threads=12 / lookahead_threads=2 / sliced_threads=0 / nr=0 / decimate=1 / interlaced=0 / bluray_compat=0 / constrained_intra=0 / bframes=0 / weightp=2 / keyint=96 / keyint_min=48 / scenecut=40 / intra_refresh=0 / rc_lookahead=48 / rc=2pass / mbtree=1 / bitrate=8000 / ratetol=1.0 / qcomp=0.60 / qpmin=0 / qpmax=69 / qpstep=4 / cplxblur=20.0 / qblur=0.5 / vbv_maxrate=12000 / vbv_bufsize=18000 / nal_hrd=none / filler=0 / ip_ratio=1.40 / aq=1:0.60
Default : Yes
Forced : No

Audio
ID : 2
Format : AAC
Format/Info : Advanced Audio Codec
Format profile : LC
Codec ID : A_AAC-2
Duration : 23 min 39 s
Bit rate : 128 kb/s
Channel(s) : 2 channels
Channel positions : Front: L R
Sampling rate : 44.1 kHz
Frame rate : 43.066 FPS (1024 SPF)
Compression mode : Lossy
Delay relative to video : 5 ms
Stream size : 21.7 MiB (2%)
Default : Yes
Forced : No

Text #1
ID : 3
Format : ASS
Codec ID : S_TEXT/ASS
Codec ID/Info : Advanced Sub Station Alpha
Duration : 23 min 39 s
Bit rate : 182 b/s
Count of elements : 444
Compression mode : Lossless
Stream size : 31.7 KiB (0%)
Title : English(US)
Language : English
Default : Yes
Forced : No

Text #2
ID : 4
Format : ASS
Codec ID : S_TEXT/ASS
Codec ID/Info : Advanced Sub Station Alpha
Duration : 23 min 39 s
Bit rate : 223 b/s
Count of elements : 429
Compression mode : Lossless
Stream size : 38.8 KiB (0%)
Title : Arabic
Language : Arabic
Default : No
Forced : No

Text #3
ID : 5
Format : ASS
Codec ID : S_TEXT/ASS
Codec ID/Info : Advanced Sub Station Alpha
Duration : 23 min 38 s
Bit rate : 151 b/s
Count of elements : 400
Compression mode : Lossless
Stream size : 26.2 KiB (0%)
Title : Francais(France)
Language : French
Default : No
Forced : No

Text #4
ID : 6
Format : ASS
Codec ID : S_TEXT/ASS
Codec ID/Info : Advanced Sub Station Alpha
Duration : 23 min 39 s
Bit rate : 187 b/s
Count of elements : 433
Compression mode : Lossless
Stream size : 32.5 KiB (0%)
Title : Deutsch
Language : German
Default : No
Forced : No

Text #5
ID : 7
Format : ASS
Codec ID : S_TEXT/ASS
Codec ID/Info : Advanced Sub Station Alpha
Duration : 23 min 39 s
Bit rate : 232 b/s
Count of elements : 523
Compression mode : Lossless
Stream size : 40.3 KiB (0%)
Title : Italiano
Language : Italian
Default : No
Forced : No

Text #6
ID : 8
Format : ASS
Codec ID : S_TEXT/ASS
Codec ID/Info : Advanced Sub Station Alpha
Duration : 23 min 40 s
Bit rate : 141 b/s
Count of elements : 380
Compression mode : Lossless
Stream size : 24.6 KiB (0%)
Title : Espanol(Espana)
Language : Spanish
Default : No
Forced : No

Text #7
ID : 9
Format : ASS
Codec ID : S_TEXT/ASS
Codec ID/Info : Advanced Sub Station Alpha
Duration : 23 min 40 s
Bit rate : 138 b/s
Count of elements : 380
Compression mode : Lossless
Stream size : 23.9 KiB (0%)
Title : Espanol
Language : Spanish
Default : No
Forced : No

Text #8
ID : 10
Format : ASS
Codec ID : S_TEXT/ASS
Codec ID/Info : Advanced Sub Station Alpha
Duration : 23 min 39 s
Bit rate : 192 b/s
Count of elements : 444
Compression mode : Lossless
Stream size : 33.4 KiB (0%)
Title : Portugues(Brasil)
Language : Portuguese
Default : No
Forced : No

Text #9
ID : 11
Format : ASS
Codec ID : S_TEXT/ASS
Codec ID/Info : Advanced Sub Station Alpha
Duration : 23 min 38 s
Bit rate : 238 b/s
Count of elements : 415
Compression mode : Lossless
Stream size : 41.3 KiB (0%)
Title : Russian
Language : Russian
Default : No
Forced : No


Screenshots

Shokugeki no Souma: Shin no Sara (2019) (3-5)

Shokugeki no Souma: Shin no Sara (2019) (3-5)

Shokugeki no Souma: Shin no Sara (2019) (3-5)


My publications | Rss Channel