Tags
Language
Tags

Ani ni Tsukeru Kusuri wa Nai! 3 (2019)

Posted By: Lebedev30
Ani ni Tsukeru Kusuri wa Nai! 3 (2019)

Ani ni Tsukeru Kusuri wa Nai! 3 (2019)
WEBRip | MKV | 1920x1080 | H264@5845 Kbps | 12x ~ 4mn | 12x ~150 Mb
日本語 E-AC-3@224 Kbps | 2 channels | Subtitles: None
Genre: daily life, high school, short episodes


Description:
* Based on a Chinese web comic by Yu Lei.

Shi Miao has a violent streak which she likes to take out on her idiot older brother, Shi Fen. The school comedy about sibling love, romance, and food continues!




01. Episode 1
02. Episode 2
03. Episode 3
04. Episode 4
05. Episode 5
06. Episode 6
07. Episode 7
08. Episode 8
09. Episode 9
10. Episode 10
11. Episode 11
12. Episode 12


General
Format : Matroska
Format version : Version 4 / Version 2
File size : 152 MiB
Duration : 3 min 30 s
Overall bit rate mode : Constant
Overall bit rate : 6 070 kb/s
Encoded date : UTC 2019-10-14 21:21:41
Writing application : mkvmerge v34.0.0 ('Sight and Seen') 64-bit
Writing library : libebml v1.3.7 + libmatroska v1.5.0

Video
ID : 1
Format : AVC
Format/Info : Advanced Video Codec
Format profile : High@L4
Format settings : CABAC / 4 Ref Frames
Format settings, CABAC : Yes
Format settings, RefFrames : 4 frames
Codec ID : V_MPEG4/ISO/AVC
Duration : 3 min 30 s
Bit rate mode : Constant
Bit rate : 5 845 kb/s
Nominal bit rate : 10 000 kb/s
Width : 1 920 pixels
Height : 1 080 pixels
Display aspect ratio : 16:9
Frame rate mode : Constant
Frame rate : 29.970 (30000/1001) FPS
Color space : YUV
Chroma subsampling : 4:2:0
Bit depth : 8 bits
Scan type : Progressive
Bits/(Pixel*Frame) : 0.094
Stream size : 146 MiB (96%)
Language : Japanese
Default : Yes
Forced : No
Color range : Limited
Color primaries : BT.709
Transfer characteristics : BT.709
Matrix coefficients : BT.709

Audio
ID : 2
Format : E-AC-3
Format/Info : Enhanced Audio Coding 3
Codec ID : A_EAC3
Duration : 3 min 30 s
Bit rate mode : Constant
Bit rate : 224 kb/s
Channel(s) : 2 channels
Channel positions : Front: L R
Sampling rate : 48.0 kHz
Frame rate : 187.500 FPS (256 SPF)
Compression mode : Lossy
Stream size : 5.61 MiB (4%)
Language : Japanese
Service kind : Complete Main
Default : Yes
Forced : No


Screenshots

Ani ni Tsukeru Kusuri wa Nai! 3 (2019)

Ani ni Tsukeru Kusuri wa Nai! 3 (2019)

Ani ni Tsukeru Kusuri wa Nai! 3 (2019)


My publications | Rss Channel