Tags
Language
Tags

Chihayafuru 3 (2019-) (1-12)

Posted By: Lebedev30
Chihayafuru 3 (2019-) (1-12)

Chihayafuru 3 (2019-) (1-12)
WEBRip | MKV | 1920x1080 | H264@8000 Kbps | 12x ~ 25mn | 12x ~1.2 Gb
日本語 AAC@128 Kbps | 2 channels | Subtitles: English, Español, Português, Русский, Italiano, Deutsch, Français
Genre: josei


Description:
They may have just won their most coveted karuta tournament, but members of the Mizusawa karuta team still have a long way to go. Each member chases their dreams, and with a win under their collective belt, those dreams are closer in reach than ever. Ayase Chihaya is determined to challenge Wakamiya Shinobu and win the title of Queen, and Mashima Taichi is ready to take on Wataya Arata now that he's made it into the most elite of karuta players — but an unexpected revelation will deal these karuta players a hand none of them saw coming.




01. May It Be That I Find
02. The Hazed Early Dawn Light Comes Not from the Moon
03. But from the Crystal White Snow of Yoshino
04. Nobody Wishes to See
05. Mount Amanokagu
06. Tatsuta River Ablaze
07. The Storm Blasts
08. As Friends and Strangers
09. I Recall How My Own Efforts Were in Vain
10. Scarlet Kadsuras
11. Leaving a Hovering Mist Above the Trees and Grass
12. So the Flower Petals Are Scattered Like the Snow by the Passing Storm


General
Format : Matroska
Format version : Version 4 / Version 2
File size : 1.29 GiB
Duration : 22 min 45 s
Overall bit rate : 8 121 kb/s
Encoded date : UTC 2019-10-22 19:48:41
Writing application : mkvmerge v26.0.0 ('In The Game') 64-bit
Writing library : libebml v1.3.6 + libmatroska v1.4.9

Video
ID : 1
Format : AVC
Format/Info : Advanced Video Codec
Format profile : High@L4
Format settings : CABAC / 4 Ref Frames
Format settings, CABAC : Yes
Format settings, RefFrames : 4 frames
Codec ID : V_MPEG4/ISO/AVC
Duration : 22 min 45 s
Bit rate : 8 000 kb/s
Width : 1 920 pixels
Height : 1 080 pixels
Display aspect ratio : 16:9
Frame rate mode : Constant
Frame rate : 23.976 (24000/1001) FPS
Color space : YUV
Chroma subsampling : 4:2:0
Bit depth : 8 bits
Scan type : Progressive
Bits/(Pixel*Frame) : 0.161
Stream size : 1.27 GiB (98%)
Writing library : x264 core 142
Encoding settings : cabac=1 / ref=4 / deblock=1:1:1 / analyse=0x3:0x113 / me=umh / subme=8 / psy=1 / psy_rd=0.40:0.00 / mixed_ref=1 / me_range=16 / chroma_me=1 / trellis=1 / 8x8dct=1 / cqm=0 / deadzone=21,11 / fast_pskip=1 / chroma_qp_offset=-2 / threads=12 / lookahead_threads=2 / sliced_threads=0 / nr=0 / decimate=1 / interlaced=0 / bluray_compat=0 / constrained_intra=0 / bframes=0 / weightp=2 / keyint=96 / keyint_min=48 / scenecut=40 / intra_refresh=0 / rc_lookahead=48 / rc=2pass / mbtree=1 / bitrate=8000 / ratetol=1.0 / qcomp=0.60 / qpmin=0 / qpmax=69 / qpstep=4 / cplxblur=20.0 / qblur=0.5 / vbv_maxrate=12000 / vbv_bufsize=18000 / nal_hrd=none / filler=0 / ip_ratio=1.40 / aq=1:0.60
Default : Yes
Forced : No

Audio
ID : 2
Format : AAC
Format/Info : Advanced Audio Codec
Format profile : LC
Codec ID : A_AAC-2
Duration : 22 min 45 s
Bit rate : 128 kb/s
Channel(s) : 2 channels
Channel positions : Front: L R
Sampling rate : 44.1 kHz
Frame rate : 43.066 FPS (1024 SPF)
Compression mode : Lossy
Delay relative to video : 5 ms
Stream size : 20.8 MiB (2%)
Default : Yes
Forced : No

Text #1
ID : 3
Format : ASS
Codec ID : S_TEXT/ASS
Codec ID/Info : Advanced Sub Station Alpha
Duration : 22 min 39 s
Bit rate : 193 b/s
Count of elements : 459
Compression mode : Lossless
Stream size : 32.2 KiB (0%)
Title : English(US)
Language : English
Default : Yes
Forced : No

Text #2
ID : 4
Format : ASS
Codec ID : S_TEXT/ASS
Codec ID/Info : Advanced Sub Station Alpha
Duration : 22 min 31 s
Bit rate : 171 b/s
Count of elements : 389
Compression mode : Lossless
Stream size : 28.3 KiB (0%)
Title : Francais(France)
Language : French
Default : No
Forced : No

Text #3
ID : 5
Format : ASS
Codec ID : S_TEXT/ASS
Codec ID/Info : Advanced Sub Station Alpha
Duration : 22 min 38 s
Bit rate : 193 b/s
Count of elements : 449
Compression mode : Lossless
Stream size : 32.1 KiB (0%)
Title : Deutsch
Language : German
Default : No
Forced : No

Text #4
ID : 6
Format : ASS
Codec ID : S_TEXT/ASS
Codec ID/Info : Advanced Sub Station Alpha
Duration : 22 min 39 s
Bit rate : 230 b/s
Count of elements : 537
Compression mode : Lossless
Stream size : 38.2 KiB (0%)
Title : Italiano
Language : Italian
Default : No
Forced : No

Text #5
ID : 7
Format : ASS
Codec ID : S_TEXT/ASS
Codec ID/Info : Advanced Sub Station Alpha
Duration : 22 min 32 s
Bit rate : 186 b/s
Count of elements : 430
Compression mode : Lossless
Stream size : 30.7 KiB (0%)
Title : Espanol
Language : Spanish
Default : No
Forced : No

Text #6
ID : 8
Format : ASS
Codec ID : S_TEXT/ASS
Codec ID/Info : Advanced Sub Station Alpha
Duration : 22 min 39 s
Bit rate : 192 b/s
Count of elements : 460
Compression mode : Lossless
Stream size : 32.0 KiB (0%)
Title : Portugues(Brasil)
Language : Portuguese
Default : No
Forced : No

Text #7
ID : 9
Format : ASS
Codec ID : S_TEXT/ASS
Codec ID/Info : Advanced Sub Station Alpha
Duration : 22 min 39 s
Bit rate : 252 b/s
Count of elements : 461
Compression mode : Lossless
Stream size : 42.0 KiB (0%)
Title : Russian
Language : Russian
Default : No
Forced : No


Screenshots

Chihayafuru 3 (2019-) (1-12)

Chihayafuru 3 (2019-) (1-12)

Chihayafuru 3 (2019-) (1-12)


My publications | Rss Channel