Tags
Language
Tags

High Score Girl II (2019)

Posted By: Lebedev30
High Score Girl II (2019)

High Score Girl II (2019)
WEBRip | MKV | 1920x1080 | H264@4220 Kbps | 9x ~ 25mn | 9x ~700 Mb
日本語 E-AC-3@128 Kbps | 2 channels | Subtitles: None
Genre: seinen, violent retribution for accidental infringement


Description:
* Based on a manga written and illustrated by Oshikiri Rensuke, serialised in Gekkan Big Gangan.






01. Episode 1
02. Episode 2
03. Episode 3
04. Episode 4
05. Episode 5
06. Episode 6
07. Episode 7
08. Episode 8
09. Episode 9


General
Format : Matroska
Format version : Version 4 / Version 2
File size : 735 MiB
Duration : 23 min 42 s
Overall bit rate mode : Variable
Overall bit rate : 4 338 kb/s
Encoded date : UTC 2019-10-26 18:47:03
Writing application : mkvmerge v34.0.0 ('Sight and Seen') 64-bit
Writing library : libebml v1.3.7 + libmatroska v1.5.0

Video
ID : 1
Format : AVC
Format/Info : Advanced Video Codec
Format profile : Main@L4
Format settings : CABAC / 3 Ref Frames
Format settings, CABAC : Yes
Format settings, RefFrames : 3 frames
Codec ID : V_MPEG4/ISO/AVC
Duration : 23 min 42 s
Bit rate mode : Variable
Bit rate : 4 220 kb/s
Maximum bit rate : 6 330 kb/s
Width : 1 920 pixels
Height : 1 080 pixels
Display aspect ratio : 16:9
Frame rate mode : Constant
Frame rate : 29.970 (30000/1001) FPS
Color space : YUV
Chroma subsampling : 4:2:0
Bit depth : 8 bits
Scan type : Progressive
Bits/(Pixel*Frame) : 0.068
Stream size : 713 MiB (97%)
Writing library : x264 core 148 r2715 7e75228
Encoding settings : cabac=1 / ref=3 / deblock=1:0:0 / analyse=0x1:0x111 / me=umh / subme=10 / psy=1 / psy_rd=1.00:0.00 / mixed_ref=1 / me_range=24 / chroma_me=1 / trellis=2 / 8x8dct=0 / cqm=0 / deadzone=21,11 / fast_pskip=1 / chroma_qp_offset=-2 / threads=8 / lookahead_threads=1 / sliced_threads=0 / nr=0 / decimate=1 / interlaced=0 / bluray_compat=0 / stitchable=1 / constrained_intra=0 / bframes=2 / b_pyramid=0 / b_adapt=2 / b_bias=0 / direct=3 / weightb=1 / open_gop=0 / weightp=2 / keyint=250 / keyint_min=25 / scenecut=0 / intra_refresh=0 / rc_lookahead=60 / rc=2pass / mbtree=1 / bitrate=4220 / ratetol=1.0 / qcomp=0.50 / qpmin=6 / qpmax=51 / qpstep=4 / cplxblur=20.0 / qblur=0.5 / vbv_maxrate=6330 / vbv_bufsize=8440 / nal_hrd=vbr / filler=0 / ip_ratio=1.40 / aq=1:1.00
Language : Japanese
Default : Yes
Forced : No

Audio
ID : 2
Format : E-AC-3
Format/Info : Enhanced Audio Coding 3
Codec ID : A_EAC3
Duration : 23 min 42 s
Bit rate mode : Constant
Bit rate : 128 kb/s
Channel(s) : 2 channels
Channel positions : Front: L R
Sampling rate : 48.0 kHz
Frame rate : 187.500 FPS (256 SPF)
Compression mode : Lossy
Stream size : 21.7 MiB (3%)
Language : Japanese
Service kind : Complete Main
Default : Yes
Forced : No


Screenshots

High Score Girl II (2019)

High Score Girl II (2019)

High Score Girl II (2019)


My publications | Rss Channel