Tags
Language
Tags

dirty pair (1985,1987)

Posted By: Lebedev30
dirty pair (1985,1987)

dirty pair (1985,1987)
BDRip | MKV | 1440x1080 | H264@5000 Kbps | 26x ~ 25mn | 26x ~950 Mb
日本語 FLAC@448 Kbps | 2 channels | Subtitles: None
Genre: action, bounty hunter, comedy, detective, gunfights, science fiction, space travel, swordplay


Description:
If you are in big trouble, call the World Welfare Work Association or WWWA. They will send out a team of highly trained, capable agents called Trouble Consultants, who will solve your problems. However, should you happen to be assigned the Dirty Pair, your problems may get solved, but not without extensive collateral damage.








01. How to Kill a Computer
02. Do Lovely Angels Prefer Chest Hair?
03. Go Ahead, Fall in Love! Love Is Russian Roulette
04. The Case Smells Like Cheesecake and Death
05. Criados` Heartbeat!
06. Lots of Danger, Lots of Decoys
07. Love Is Everything, Risk Your Life to Elope!!
08. Gotta Do It! Love Is What Makes a Woman Explode
09. Beautiful Bodyguards Are a Better Deal
10. What? We`re the Brutal Bodyguards!
11. Hah Hah Hah, Dresses and Men Should Always Be…
12. The Little Dictator! Let Sleeping Top Secrets…
13. What`s This! My Supple Skin Is a Mess
14. The Vault or the Vote? A Murderous Day for a Speech
15. Dig Here, Meow Meow. Happiness Comes at the End.
16. Leave It to Us! The WWWA Is a Wonderful Job
17. Come Out, Come Out, Assassin
18. Pardon Us. Trouble`s on the Run, So We`re Coming Through!
19. An Unjustified Lover`s Grudge. Let Me Love You Without Revenge
20. Nostalgic Blues. Make a Killer Soundtrack
21. No Way! 463 People Disappeared?
22. We Did It! 463 People Found!
23. Something`s Amiss…!? Our Elegant Revenge
24. Are You Serious? A Condo Is a Dangerous Place…
25. Eek! The Boy in the Manor Is a Terminator
26. R-Really!? For Beautiful Women, "Canon" Is the Keyword to Escape


General
Format : Matroska
Format version : Version 4 / Version 2
File size : 954 MiB
Duration : 24 min 27 s
Overall bit rate mode : Variable
Overall bit rate : 5 449 kb/s
Encoded date : UTC 2020-01-06 03:07:10
Writing application : mkvmerge v32.0.0 ('Astral Progressions') 64-bit
Writing library : libebml v1.3.7 + libmatroska v1.5.0

Video
ID : 2
Format : AVC
Format/Info : Advanced Video Codec
Format profile : High 10@L5
Format settings : CABAC / 16 Ref Frames
Format settings, CABAC : Yes
Format settings, RefFrames : 16 frames
Codec ID : V_MPEG4/ISO/AVC
Duration : 24 min 27 s
Bit rate : 5 000 kb/s
Width : 1 440 pixels
Height : 1 080 pixels
Display aspect ratio : 4:3
Frame rate mode : Constant
Frame rate : 23.976 (24000/1001) FPS
Color space : YUV
Chroma subsampling : 4:2:0
Bit depth : 10 bits
Scan type : Progressive
Bits/(Pixel*Frame) : 0.134
Stream size : 875 MiB (92%)
Writing library : x264 core 157 r2935 545de2f
Encoding settings : cabac=1 / ref=16 / deblock=1:0:0 / analyse=0x3:0x133 / me=tesa / subme=11 / psy=1 / psy_rd=1.00:0.00 / mixed_ref=1 / me_range=24 / chroma_me=1 / trellis=2 / 8x8dct=1 / cqm=0 / deadzone=21,11 / fast_pskip=0 / chroma_qp_offset=-2 / threads=12 / lookahead_threads=3 / sliced_threads=0 / nr=0 / decimate=1 / interlaced=0 / bluray_compat=0 / constrained_intra=0 / bframes=16 / b_pyramid=2 / b_adapt=2 / b_bias=0 / direct=3 / weightb=1 / open_gop=0 / weightp=2 / keyint=240 / keyint_min=23 / scenecut=40 / intra_refresh=0 / rc_lookahead=60 / rc=2pass / mbtree=1 / bitrate=5000 / ratetol=1.0 / qcomp=0.60 / qpmin=0 / qpmax=81 / qpstep=4 / cplxblur=20.0 / qblur=0.5 / ip_ratio=1.40 / aq=1:1.00
Default : Yes
Forced : No

Audio
ID : 1
Format : FLAC
Format/Info : Free Lossless Audio Codec
Codec ID : A_FLAC
Duration : 24 min 27 s
Bit rate mode : Variable
Bit rate : 448 kb/s
Channel(s) : 2 channels
Channel positions : Front: L R
Sampling rate : 48.0 kHz
Frame rate : 11.719 FPS (4096 SPF)
Bit depth : 16 bits
Stream size : 78.5 MiB (8%)
Writing library : libFLAC 1.3.2 (UTC 2017-01-01)
Default : Yes
Forced : No

Menu
00:00:00.000 : en:Opening
00:01:30.090 : en:A Part
00:11:10.670 : en:B Part
00:22:21.340 : en:Ending
00:23:56.435 : en:Yokoku


Screenshots

dirty pair (1985,1987)

dirty pair (1985,1987)

dirty pair (1985,1987)


My publications | Rss Channel