Tags
Language
Tags

Dirty Pair (1987)

Posted By: Lebedev30
Dirty Pair (1987)

Dirty Pair (1987)
BDRip | MKV | 1440x1080 | H264@5000 Kbps | 10x ~ 25mn | 10x ~0.9 Gb
日本語 FLAC@545 Kbps | 2 channels | Subtitles: None
Genre: action, comedy, detective, ecchi, gunfights, law and order, police, science fiction, shounen, violence


Description:
Kei and Yuri are Trouble Consultants for the World Welfare Work Association (3WA) — codenamed the Lovely Angels or better known as the Dirty Pair. Even though they are quite efficient at getting results, their methods usually lead to excessive collateral damage, bringing tears to Chief Gooley's eyes, and grief to those unlucky enough to be helped by the Dirty Pair.

Kei's day begins with having to work through a mountain of paperwork, while Yuri visits Dr. Kubellstein to receive his latest laser ring invention. Chief Gooley sends them off to the lifers-only Karosu Prison built on a waste star, that has been taken over by the prisoners. Their task: bring back warden Shochou alive…

On Halloween night the Dirty Pair have been put on duty to catch a troublemaker selling state secrets. A crash landing, and the escape of the secret cargo, a tactical robot weapon, certainly infuriates Chief Gooley. But the retrieval ends up being complicated since the robot is quite nimble on his feet and other criminal elements have picked this night to create chaos in Eleanor City…

On an agricultural planet, the recently ordained deity started killing believers. The Dirty Pair is sent in to investigate the irregularities at New Heaven…






01. Prison Uprising: We Hate People with Grudges!
02. No Thanks! No Need for a Halloween Party
03. We`re Not Afraid of Divine Judgment: It`s Like Magic?! The God`s Challenge
04. Who Cares If They`re Only Kids! Playing War Games Warrants a Firing Squad?!
05. And So, Nobody`s Doing It Anymore
06. Are You Serious?! Shocked at the Beach: Wedding Panic!
07. Revenge of the Muscle Lady! Is a Woman`s Spirit the Beauty of the Ring?
08. That Little Girl Is Older Than Us: The Preservation Was a Success?! Sleeping Beauty
09. Red Eyes Are the Sign of Hell: Chase After the Killing Squad!
10. No Need to Listen to the Bad Guys: We Are Space Truckers!


General
Format : Matroska
Format version : Version 4 / Version 2
File size : 970 MiB
Duration : 24 min 27 s
Overall bit rate mode : Variable
Overall bit rate : 5 546 kb/s
Encoded date : UTC 2020-01-20 05:51:13
Writing application : mkvmerge v32.0.0 ('Astral Progressions') 64-bit
Writing library : libebml v1.3.7 + libmatroska v1.5.0

Video
ID : 2
Format : AVC
Format/Info : Advanced Video Codec
Format profile : High 10@L5
Format settings : CABAC / 16 Ref Frames
Format settings, CABAC : Yes
Format settings, RefFrames : 16 frames
Codec ID : V_MPEG4/ISO/AVC
Duration : 24 min 27 s
Bit rate : 5 000 kb/s
Width : 1 440 pixels
Height : 1 080 pixels
Display aspect ratio : 4:3
Frame rate mode : Constant
Frame rate : 23.976 (24000/1001) FPS
Color space : YUV
Chroma subsampling : 4:2:0
Bit depth : 10 bits
Scan type : Progressive
Bits/(Pixel*Frame) : 0.134
Stream size : 875 MiB (90%)
Writing library : x264 core 157 r2935 545de2f
Encoding settings : cabac=1 / ref=16 / deblock=1:0:0 / analyse=0x3:0x133 / me=tesa / subme=11 / psy=1 / psy_rd=1.00:0.00 / mixed_ref=1 / me_range=24 / chroma_me=1 / trellis=2 / 8x8dct=1 / cqm=0 / deadzone=21,11 / fast_pskip=0 / chroma_qp_offset=-2 / threads=12 / lookahead_threads=3 / sliced_threads=0 / nr=0 / decimate=1 / interlaced=0 / bluray_compat=0 / constrained_intra=0 / bframes=16 / b_pyramid=2 / b_adapt=2 / b_bias=0 / direct=3 / weightb=1 / open_gop=0 / weightp=2 / keyint=240 / keyint_min=23 / scenecut=40 / intra_refresh=0 / rc_lookahead=60 / rc=2pass / mbtree=1 / bitrate=5000 / ratetol=1.0 / qcomp=0.60 / qpmin=0 / qpmax=81 / qpstep=4 / cplxblur=20.0 / qblur=0.5 / ip_ratio=1.40 / aq=1:1.00
Default : Yes
Forced : No

Audio
ID : 1
Format : FLAC
Format/Info : Free Lossless Audio Codec
Codec ID : A_FLAC
Duration : 24 min 27 s
Bit rate mode : Variable
Bit rate : 545 kb/s
Channel(s) : 2 channels
Channel positions : Front: L R
Sampling rate : 48.0 kHz
Frame rate : 11.719 FPS (4096 SPF)
Bit depth : 16 bits
Stream size : 95.4 MiB (10%)
Writing library : libFLAC 1.3.2 (UTC 2017-01-01)
Default : Yes
Forced : No

Menu
00:00:00.000 : en:Opening
00:01:36.096 : en:A Part
00:12:06.726 : en:B Part
00:22:31.350 : en:Ending
00:23:56.435 : en:Yokoku


Screenshots

Dirty Pair (1987)

Dirty Pair (1987)

Dirty Pair (1987)


My publications | Rss Channel