Tags
Language
Tags

Dirty Pair Film (1985,1987,1990)

Posted By: Lebedev30
Dirty Pair Film (1985,1987,1990)

Dirty Pair Film (1985,1987,1990)
BDRip | MKV | 1440x1080 | H264@5000 Kbps | 1x ~ 57mn, 1x ~ 59mn, 1x ~ 81mn | 3x ~2 Gb
日本語 FLAC@635 Kbps | 2 channels | Subtitles: None
Genre: action, comedy, detective, gunfights, science fiction, space travel, violence


Description:
Chief Gooley's worst nightmare may have come true… The Lovely Angels or more infamously known as the Dirty Pair are back on the job, but this time the 3WA's Central Computer has assigned them two cases at the same time: investigate a space liner explosion killing three hundred people, but no one has come forward to claim the insurance money; and find a missing scientist and his family.

Could the two cases be connected? Only the Central Computer knows, but is withholding the information. So it is up the Dirty Pair to get down and dirty and solve the puzzle before time runs out for a grieving grandfather, his family and the universe!














01. OVA
02. OVA
03. OVA


General
Format : Matroska
Format version : Version 4 / Version 2
File size : 2.23 GiB
Duration : 56 min 41 s
Overall bit rate mode : Variable
Overall bit rate : 5 635 kb/s
Encoded date : UTC 2020-01-17 06:33:58
Writing application : mkvmerge v32.0.0 ('Astral Progressions') 64-bit
Writing library : libebml v1.3.7 + libmatroska v1.5.0

Video
ID : 2
Format : AVC
Format/Info : Advanced Video Codec
Format profile : High 10@L5
Format settings : CABAC / 16 Ref Frames
Format settings, CABAC : Yes
Format settings, RefFrames : 16 frames
Codec ID : V_MPEG4/ISO/AVC
Duration : 56 min 41 s
Bit rate : 5 000 kb/s
Width : 1 440 pixels
Height : 1 080 pixels
Display aspect ratio : 4:3
Frame rate mode : Constant
Frame rate : 23.976 (24000/1001) FPS
Color space : YUV
Chroma subsampling : 4:2:0
Bit depth : 10 bits
Scan type : Progressive
Bits/(Pixel*Frame) : 0.134
Stream size : 1.98 GiB (89%)
Writing library : x264 core 157 r2935 545de2f
Encoding settings : cabac=1 / ref=16 / deblock=1:0:0 / analyse=0x3:0x133 / me=tesa / subme=11 / psy=1 / psy_rd=1.00:0.00 / mixed_ref=1 / me_range=24 / chroma_me=1 / trellis=2 / 8x8dct=1 / cqm=0 / deadzone=21,11 / fast_pskip=0 / chroma_qp_offset=-2 / threads=12 / lookahead_threads=3 / sliced_threads=0 / nr=0 / decimate=1 / interlaced=0 / bluray_compat=0 / constrained_intra=0 / bframes=16 / b_pyramid=2 / b_adapt=2 / b_bias=0 / direct=3 / weightb=1 / open_gop=0 / weightp=2 / keyint=240 / keyint_min=23 / scenecut=40 / intra_refresh=0 / rc_lookahead=60 / rc=2pass / mbtree=1 / bitrate=5000 / ratetol=1.0 / qcomp=0.60 / qpmin=0 / qpmax=81 / qpstep=4 / cplxblur=20.0 / qblur=0.5 / ip_ratio=1.40 / aq=1:1.00
Default : Yes
Forced : No

Audio
ID : 1
Format : FLAC
Format/Info : Free Lossless Audio Codec
Codec ID : A_FLAC
Duration : 56 min 41 s
Bit rate mode : Variable
Bit rate : 635 kb/s
Channel(s) : 2 channels
Channel positions : Front: L R
Sampling rate : 48.0 kHz
Frame rate : 11.719 FPS (4096 SPF)
Bit depth : 16 bits
Stream size : 257 MiB (11%)
Writing library : libFLAC 1.3.2 (UTC 2017-01-01)
Default : Yes
Forced : No

Menu
00:00:00.000 : en:Prologue
00:03:24.996 : en:Opening
00:09:11.092 : en:A Part
00:16:20.813 : en:B Part
00:22:33.644 : en:C Part
00:26:11.028 : en:D Part
00:34:23.812 : en:E Part
00:36:04.454 : en:F Part
00:40:33.014 : en:G Part
00:43:25.520 : en:H Part
00:48:20.064 : en:I Part
00:53:46.348 : en:Ending


Screenshots

Dirty Pair Film (1985,1987,1990)

Dirty Pair Film (1985,1987,1990)

Dirty Pair Film (1985,1987,1990)


My publications | Rss Channel