Tags
Language
Tags

Shin Chuuka Ichiban! (2019) (12)

Posted By: Lebedev30
Shin Chuuka Ichiban! (2019) (12)

Shin Chuuka Ichiban! (2019) (12)
WEBRip | MKV | 1920x1080 | H264@8000 Kbps | 1x ~ 25mn | 1x ~1.3 Gb
日本語 AAC@128 Kbps | 2 channels | Subtitles: English, Español, Português, Русский, Italiano, Deutsch, Français


Description:
* Based on an adventure shounen cooking manga by Ogawa Etsushi.

During the 19th century China, Liu Maoxing, wins the title of Super Chef and is the youngest to do so in history. His master, Zhou Yu, suggests that he broaden his skills as a chef even more, so he goes on a journey around China with his friends Shirou and Meili. After returning, he also teams up with Xie Lu and Lei En to fight the Underground Cooking Society. He then learns the secret about the 8 Legendary Cooking Tools. In the past, Mao's mother, Bei, had wished for everyone's happiness and fought against the Underground Cooking Society. In order to continue his mother's wishes and protect the Legendary Cooking Utensils from the Underground Cooking Society, Mao and his friends go on a journey…




12. Man of Destiny


General
Format : Matroska
Format version : Version 4 / Version 2
File size : 1.36 GiB
Duration : 23 min 57 s
Overall bit rate : 8 114 kb/s
Encoded date : UTC 2019-12-27 19:48:50
Writing application : mkvmerge v26.0.0 ('In The Game') 64-bit
Writing library : libebml v1.3.6 + libmatroska v1.4.9

Video
ID : 1
Format : AVC
Format/Info : Advanced Video Codec
Format profile : High@L4
Format settings : CABAC / 4 Ref Frames
Format settings, CABAC : Yes
Format settings, RefFrames : 4 frames
Codec ID : V_MPEG4/ISO/AVC
Duration : 23 min 57 s
Bit rate : 8 000 kb/s
Width : 1 920 pixels
Height : 1 080 pixels
Display aspect ratio : 16:9
Frame rate mode : Constant
Frame rate : 23.976 (24000/1001) FPS
Color space : YUV
Chroma subsampling : 4:2:0
Bit depth : 8 bits
Scan type : Progressive
Bits/(Pixel*Frame) : 0.161
Stream size : 1.34 GiB (98%)
Writing library : x264 core 142
Encoding settings : cabac=1 / ref=4 / deblock=1:1:1 / analyse=0x3:0x113 / me=umh / subme=8 / psy=1 / psy_rd=0.40:0.00 / mixed_ref=1 / me_range=16 / chroma_me=1 / trellis=1 / 8x8dct=1 / cqm=0 / deadzone=21,11 / fast_pskip=1 / chroma_qp_offset=-2 / threads=12 / lookahead_threads=2 / sliced_threads=0 / nr=0 / decimate=1 / interlaced=0 / bluray_compat=0 / constrained_intra=0 / bframes=0 / weightp=2 / keyint=96 / keyint_min=48 / scenecut=40 / intra_refresh=0 / rc_lookahead=48 / rc=2pass / mbtree=1 / bitrate=8000 / ratetol=1.0 / qcomp=0.60 / qpmin=0 / qpmax=69 / qpstep=4 / cplxblur=20.0 / qblur=0.5 / vbv_maxrate=12000 / vbv_bufsize=18000 / nal_hrd=none / filler=0 / ip_ratio=1.40 / aq=1:0.60
Default : Yes
Forced : No

Audio
ID : 2
Format : AAC
Format/Info : Advanced Audio Codec
Format profile : LC
Codec ID : A_AAC-2
Duration : 23 min 57 s
Bit rate : 128 kb/s
Channel(s) : 2 channels
Channel positions : Front: L R
Sampling rate : 44.1 kHz
Frame rate : 43.066 FPS (1024 SPF)
Compression mode : Lossy
Stream size : 21.9 MiB (2%)
Default : Yes
Forced : No

Text #1
ID : 3
Format : ASS
Codec ID : S_TEXT/ASS
Codec ID/Info : Advanced Sub Station Alpha
Duration : 23 min 40 s
Bit rate : 141 b/s
Count of elements : 333
Compression mode : Lossless
Stream size : 24.6 KiB (0%)
Title : English(US)
Language : English
Default : Yes
Forced : No

Text #2
ID : 4
Format : ASS
Codec ID : S_TEXT/ASS
Codec ID/Info : Advanced Sub Station Alpha
Duration : 23 min 40 s
Bit rate : 175 b/s
Count of elements : 333
Compression mode : Lossless
Stream size : 30.4 KiB (0%)
Title : Arabic
Language : Arabic
Default : No
Forced : No

Text #3
ID : 5
Format : ASS
Codec ID : S_TEXT/ASS
Codec ID/Info : Advanced Sub Station Alpha
Duration : 22 min 20 s
Bit rate : 164 b/s
Count of elements : 357
Compression mode : Lossless
Stream size : 27.0 KiB (0%)
Title : Francais(France)
Language : French
Default : No
Forced : No

Text #4
ID : 6
Format : ASS
Codec ID : S_TEXT/ASS
Codec ID/Info : Advanced Sub Station Alpha
Duration : 22 min 20 s
Bit rate : 150 b/s
Count of elements : 367
Compression mode : Lossless
Stream size : 24.6 KiB (0%)
Title : Deutsch
Language : German
Default : No
Forced : No

Text #5
ID : 7
Format : ASS
Codec ID : S_TEXT/ASS
Codec ID/Info : Advanced Sub Station Alpha
Duration : 23 min 40 s
Bit rate : 151 b/s
Count of elements : 337
Compression mode : Lossless
Stream size : 26.2 KiB (0%)
Title : Italiano
Language : Italian
Default : No
Forced : No

Text #6
ID : 8
Format : ASS
Codec ID : S_TEXT/ASS
Codec ID/Info : Advanced Sub Station Alpha
Duration : 22 min 19 s
Bit rate : 129 b/s
Count of elements : 321
Compression mode : Lossless
Stream size : 21.2 KiB (0%)
Title : Espanol(Espana)
Language : Spanish
Default : No
Forced : No

Text #7
ID : 9
Format : ASS
Codec ID : S_TEXT/ASS
Codec ID/Info : Advanced Sub Station Alpha
Duration : 22 min 19 s
Bit rate : 129 b/s
Count of elements : 322
Compression mode : Lossless
Stream size : 21.1 KiB (0%)
Title : Espanol
Language : Spanish
Default : No
Forced : No

Text #8
ID : 10
Format : ASS
Codec ID : S_TEXT/ASS
Codec ID/Info : Advanced Sub Station Alpha
Duration : 23 min 40 s
Bit rate : 153 b/s
Count of elements : 334
Compression mode : Lossless
Stream size : 26.6 KiB (0%)
Title : Portugues(Brasil)
Language : Portuguese
Default : No
Forced : No

Text #9
ID : 11
Format : ASS
Codec ID : S_TEXT/ASS
Codec ID/Info : Advanced Sub Station Alpha
Duration : 23 min 40 s
Bit rate : 176 b/s
Count of elements : 328
Compression mode : Lossless
Stream size : 30.7 KiB (0%)
Title : Russian
Language : Russian
Default : No
Forced : No


Screenshots

Shin Chuuka Ichiban! (2019) (12)

Shin Chuuka Ichiban! (2019) (12)

Shin Chuuka Ichiban! (2019) (12)


My publications | Rss Channel