Tags
Language
Tags

Pet (2020) (1-12)

Posted By: Lebedev30
Pet (2020) (1-12)

Pet (2020) (1-12)
WEBRip | MKV | 1920x1080 | H264@6540 Kbps | 12x ~ 25mn | 12x ~1.1 Gb
日本語 E-AC-3@224 Kbps | 2 channels | Subtitles: English, Español, Português, Italiano, Deutsch, Français, 中文, 日本語, 한국어


Description:
* Based on a supernatural mystery seinen manga written and drawn by Miyake Ranjou.

Within the world exist people with heightened empathy, so much so that it's reached a psychic-level phenomenon allowing them to enter the memories of others. Some can even manipulate these memories or cause the subjects to hallucinate. It wasn't long before Yakuza and criminals began utilizing people with these abilities to manipulate witnesses and cover-up their own deeds. Tsukasa and Hiroki both possess these abilities and are employed by the nefarious Katsuragi who calls them the "Crushers."




01. The Crushers
02. Views of the Peak
03. Jobs
04. A Trap for Hayashi
05. Locks
06. Back Door
07. Revenge
08. Intrigue
09. The Way the Wind Blows
10. Broken Fish Tanks
11. Reunion
12. Carrier Pigeon


General
Format : Matroska
Format version : Version 4 / Version 2
File size : 1.15 GiB
Duration : 23 min 55 s
Overall bit rate : 6 897 kb/s
Encoded date : UTC 2020-01-24 05:46:31
Writing application : mkvmerge v40.0.0 ('Old Town Road + Pony') 64-bit
Writing library : libebml v1.3.9 + libmatroska v1.5.2

Video
ID : 1
Format : AVC
Format/Info : Advanced Video Codec
Format profile : High@L4
Format settings : CABAC / 4 Ref Frames
Format settings, CABAC : Yes
Format settings, RefFrames : 4 frames
Codec ID : V_MPEG4/ISO/AVC
Duration : 23 min 55 s
Bit rate mode : Constant
Bit rate : 6 540 kb/s
Nominal bit rate : 10 000 kb/s
Width : 1 920 pixels
Height : 1 080 pixels
Display aspect ratio : 16:9
Frame rate mode : Constant
Frame rate : 23.976 (24000/1001) FPS
Color space : YUV
Chroma subsampling : 4:2:0
Bit depth : 8 bits
Scan type : Progressive
Bits/(Pixel*Frame) : 0.132
Stream size : 1.09 GiB (95%)
Default : Yes
Forced : No
Color range : Limited
Color primaries : BT.709
Transfer characteristics : BT.709
Matrix coefficients : BT.709

Audio #1
ID : 2
Format : E-AC-3
Format/Info : Enhanced Audio Coding 3
Codec ID : A_EAC3
Duration : 23 min 55 s
Bit rate mode : Constant
Bit rate : 224 kb/s
Channel(s) : 2 channels
Channel positions : Front: L R
Sampling rate : 48.0 kHz
Frame rate : 187.500 FPS (256 SPF)
Compression mode : Lossy
Stream size : 38.3 MiB (3%)
Language : Japanese
Service kind : Complete Main
Default : Yes
Forced : No

Audio #2
ID : 3
Format : AAC
Format/Info : Advanced Audio Codec
Format profile : LC
Codec ID : A_AAC-2
Duration : 23 min 55 s
Bit rate : 128 kb/s
Channel(s) : 2 channels
Channel positions : Front: L R
Sampling rate : 48.0 kHz
Frame rate : 46.875 FPS (1024 SPF)
Compression mode : Lossy
Stream size : 21.9 MiB (2%)
Language : Japanese
Default : No
Forced : No

Text #1
ID : 4
Format : ASS
Codec ID : S_TEXT/ASS
Codec ID/Info : Advanced Sub Station Alpha
Duration : 23 min 36 s
Bit rate : 107 b/s
Count of elements : 340
Compression mode : Lossless
Stream size : 18.6 KiB (0%)
Language : English
Default : Yes
Forced : No

Text #2
ID : 5
Format : ASS
Codec ID : S_TEXT/ASS
Codec ID/Info : Advanced Sub Station Alpha
Duration : 23 min 36 s
Bit rate : 110 b/s
Count of elements : 340
Compression mode : Lossless
Stream size : 19.1 KiB (0%)
Language : Spanish
Default : No
Forced : No

Text #3
ID : 6
Format : ASS
Codec ID : S_TEXT/ASS
Codec ID/Info : Advanced Sub Station Alpha
Duration : 23 min 36 s
Bit rate : 102 b/s
Count of elements : 340
Compression mode : Lossless
Stream size : 17.7 KiB (0%)
Language : Spanish
Default : No
Forced : No

Text #4
ID : 7
Format : ASS
Codec ID : S_TEXT/ASS
Codec ID/Info : Advanced Sub Station Alpha
Duration : 23 min 36 s
Bit rate : 108 b/s
Count of elements : 340
Compression mode : Lossless
Stream size : 18.8 KiB (0%)
Language : French
Default : No
Forced : No

Text #5
ID : 8
Format : ASS
Codec ID : S_TEXT/ASS
Codec ID/Info : Advanced Sub Station Alpha
Duration : 23 min 36 s
Bit rate : 104 b/s
Count of elements : 340
Compression mode : Lossless
Stream size : 18.1 KiB (0%)
Language : Italian
Default : No
Forced : No

Text #6
ID : 9
Format : ASS
Codec ID : S_TEXT/ASS
Codec ID/Info : Advanced Sub Station Alpha
Duration : 23 min 36 s
Bit rate : 99 b/s
Count of elements : 340
Compression mode : Lossless
Stream size : 17.3 KiB (0%)
Language : Korean
Default : No
Forced : No

Text #7
ID : 10
Format : ASS
Codec ID : S_TEXT/ASS
Codec ID/Info : Advanced Sub Station Alpha
Duration : 23 min 36 s
Bit rate : 102 b/s
Count of elements : 340
Compression mode : Lossless
Stream size : 17.7 KiB (0%)
Language : Portuguese
Default : No
Forced : No

Text #8
ID : 11
Format : ASS
Codec ID : S_TEXT/ASS
Codec ID/Info : Advanced Sub Station Alpha
Duration : 23 min 36 s
Bit rate : 89 b/s
Count of elements : 340
Compression mode : Lossless
Stream size : 15.4 KiB (0%)
Language : Chinese
Default : No
Forced : No

Text #9
ID : 12
Format : ASS
Codec ID : S_TEXT/ASS
Codec ID/Info : Advanced Sub Station Alpha
Duration : 21 min 49 s
Bit rate : 105 b/s
Count of elements : 290
Compression mode : Lossless
Stream size : 16.8 KiB (0%)
Language : German
Default : No
Forced : No


Screenshots

Pet (2020) (1-12)

Pet (2020) (1-12)

Pet (2020) (1-12)


My publications | Rss Channel