Tags
Language
Tags

Slayers Try (1997)

Posted By: Lebedev30
Slayers Try (1997)

Slayers Try (1997)
BDRip | MKV | 1440x1080 | H264@~5000 Kbps | 26x ~ 22mn | 26x ~1 Gb
Japanese DTS@1 509 Kbps | 2 channels | Subtitles: None
Genre: action, adventure, comedy, dragon, fantasy, magic, swordplay, violence


Description:
A magical barrier has just been broken down… now our heroes can visit places that they have never seen before. After being commissioned by princess Filia, a Golden Dragon, the group is at work to stop a terrible prophecy from coming true. As Lina, Gourry, Zel, and Amelia travel through new towns and kingdoms, it becomes apparent that magic is not as common as in their home towns. This does not mean that the people are not strange, however. The town of fish people will bring back fond memories of Noonsa…






01. Majestic? Hoist Sails for the Journey!
02. Doubtful? A Letter from Home!
03. Where`d That Arrogant Guy Go?
04. On the Move! He`s Out for Revenge?
05. A Wild Rumor? You Can`t Have Smoke Without Fire?
06. Wandering Around? The Runaway Shrine Takes a Trip!
07. A Peace Conference? This Is the Dragon Shrine?
08. Be Careful! The Plan Has Begun!
09. Continuous Fire! The Wind-Swept Shore of Battle!
10. Ready for Exile! Isn`t Two People`s Love Eternal?
11. The Hurdle`s Cleared? Jillas`s True Power!
12. Selfless and Senseless! Pursuit Through the Labyrinth!
13. An Explosive Situation! The One Who Holds the Key!
14. Striding and Swaggering! Lamentation Without End!
15. Disaster and Danger? This Place Is a Wonder Island!
16. Pandemonium! Terror of the Cursed Jar!
17. Immediate Results? Love Is in the Tiny Differences
18. The Right Person in the Right Place! Amelia in the Village of Justice!
19. Three People, Three Ways! Where the Light Leads!
20. A Hero`s Advent? For Whom Does the Young Girl Pray?
21. Savage and Unexplored! History Sealed Away!
22. Eternal Death, Final Farewells! A Cry to the Fallen!
23. No Time for Arguing! Head for the Showdown!
24. No Way to Guess! The Forbidden Gateway Is Opened!
25. He Who Emerges from the Dark Star!
26. Try Again! When All Returns to White!


General
Format : Matroska
Format version : Version 4 / Version 2
File size : 1.05 GiB
Duration : 22 min 35 s
Overall bit rate : 6 623 kb/s
Encoded date : UTC 2017-11-30 01:13:42
Writing application : mkvmerge v9.8.0 ('Kuglblids') 64bit
Writing library : libebml v1.3.4 + libmatroska v1.4.5

Video
ID : 1
Format : AVC
Format/Info : Advanced Video Codec
Format profile : High@L5
Format settings : CABAC / 10 Ref Frames
Format settings, CABAC : Yes
Format settings, RefFrames : 10 frames
Codec ID : V_MPEG4/ISO/AVC
Duration : 22 min 35 s
Bit rate : 5 000 kb/s
Width : 1 440 pixels
Height : 1 080 pixels
Display aspect ratio : 4:3
Frame rate mode : Constant
Frame rate : 23.976 (24000/1001) FPS
Color space : YUV
Chroma subsampling : 4:2:0
Bit depth : 8 bits
Scan type : Progressive
Bits/(Pixel*Frame) : 0.134
Stream size : 808 MiB (75%)
Writing library : x264 core 142 r2431 ac76440
Encoding settings : cabac=1 / ref=10 / deblock=1:1:1 / analyse=0x3:0x113 / me=umh / subme=8 / psy=1 / psy_rd=0.40:0.00 / mixed_ref=1 / me_range=16 / chroma_me=1 / trellis=1 / 8x8dct=1 / cqm=0 / deadzone=21,11 / fast_pskip=1 / chroma_qp_offset=-2 / threads=6 / lookahead_threads=1 / sliced_threads=0 / nr=0 / decimate=1 / interlaced=0 / bluray_compat=0 / constrained_intra=0 / bframes=5 / b_pyramid=2 / b_adapt=2 / b_bias=0 / direct=3 / weightb=1 / open_gop=0 / weightp=2 / keyint=240 / keyint_min=23 / scenecut=40 / intra_refresh=0 / rc_lookahead=50 / rc=2pass / mbtree=1 / bitrate=5000 / ratetol=1.0 / qcomp=0.60 / qpmin=0 / qpmax=69 / qpstep=4 / cplxblur=20.0 / qblur=0.5 / ip_ratio=1.40 / aq=1:0.60
Default : Yes
Forced : No

Audio
ID : 2
Format : DTS
Format/Info : Digital Theater Systems
Format profile : MA / Core
Codec ID : A_DTS
Duration : 22 min 34 s
Bit rate mode : Variable / Constant
Bit rate : 1 621 kb/s / 1 509 kb/s
Channel(s) : 2 channels
Channel positions : Front: L R
Sampling rate : 48.0 kHz
Frame rate : 93.750 FPS (512 SPF)
Bit depth : 16 bits
Compression mode : Lossless / Lossy
Stream size : 262 MiB (24%)
Default : Yes
Forced : No


Screenshots

Slayers Try (1997)

Slayers Try (1997)

Slayers Try (1997)


My publications | Rss Channel