Tags
Language
Tags

Slayers Evolution-R (2009)

Posted By: Lebedev30
Slayers Evolution-R (2009)

Slayers Evolution-R (2009)
BDRip | MKV | 1920x1080 | H264@~5000 Kbps | 13x ~ 24mn | 13x ~0.9 Gb
Japanese TrueHD@797 Kbps | 2 channels | Subtitles: None
Genre: comedy, dragon, fantasy, magic, violence


Description:
To find a way in rescuing Pokota's country, Taforashia, which was sealed by Rezo after being hit by a deadly disease, Lina and her group are in search for the Hellmaster's jar in which the Red Priest placed his soul after death.






01. Newcomer? A New Journey!
02. Oh My Head! Where`s My Head?
03. Partner! Sharing Mind and Body?
04. Quality Time? A Home Life with Love?
05. Raider! Voice from the Darkness!
06. Seek! Who`s Being Targeted?!
07. Townscape! Because It`s Manmade!
08. Uncover! The Exposed Darkness!
09. Voice: What`s Inside the Jar?
10. Wisdom! Seek the Time That Will Never Return!
11. Xeno! The Price of Revival!
12. Yesterday`s Memory! Days Regained!
13. Zero Hour! The Destroyed One!


General
Format : Matroska
Format version : Version 4 / Version 2
File size : 990 MiB
Duration : 23 min 37 s
Overall bit rate mode : Variable
Overall bit rate : 5 858 kb/s
Encoded date : UTC 2020-04-03 07:35:07
Writing application : mkvmerge v32.0.0 ('Astral Progressions') 64-bit
Writing library : libebml v1.3.7 + libmatroska v1.5.0

Video
ID : 2
Format : AVC
Format/Info : Advanced Video Codec
Format profile : High@L5
Format settings : CABAC / 10 Ref Frames
Format settings, CABAC : Yes
Format settings, RefFrames : 10 frames
Codec ID : V_MPEG4/ISO/AVC
Duration : 23 min 37 s
Bit rate : 5 000 kb/s
Width : 1 920 pixels
Height : 1 080 pixels
Display aspect ratio : 16:9
Frame rate mode : Constant
Frame rate : 23.976 (24000/1001) FPS
Color space : YUV
Chroma subsampling : 4:2:0
Bit depth : 8 bits
Scan type : Progressive
Bits/(Pixel*Frame) : 0.101
Stream size : 845 MiB (85%)
Writing library : x264 core 142 r2431 ac76440
Encoding settings : cabac=1 / ref=10 / deblock=1:1:1 / analyse=0x3:0x113 / me=umh / subme=8 / psy=1 / psy_rd=0.40:0.00 / mixed_ref=1 / me_range=16 / chroma_me=1 / trellis=1 / 8x8dct=1 / cqm=0 / deadzone=21,11 / fast_pskip=1 / chroma_qp_offset=-2 / threads=12 / lookahead_threads=3 / sliced_threads=0 / nr=0 / decimate=1 / interlaced=0 / bluray_compat=0 / constrained_intra=0 / bframes=5 / b_pyramid=2 / b_adapt=2 / b_bias=0 / direct=3 / weightb=1 / open_gop=0 / weightp=2 / keyint=240 / keyint_min=23 / scenecut=40 / intra_refresh=0 / rc_lookahead=50 / rc=2pass / mbtree=1 / bitrate=5000 / ratetol=1.0 / qcomp=0.60 / qpmin=0 / qpmax=69 / qpstep=4 / cplxblur=20.0 / qblur=0.5 / ip_ratio=1.40 / aq=1:0.60
Default : Yes
Forced : No

Audio
ID : 1
Format : TrueHD
Codec ID : A_TRUEHD
Duration : 23 min 37 s
Bit rate mode : Variable
Bit rate : 797 kb/s
Maximum bit rate : 1 269 kb/s
Channel(s) : 2 channels
Channel positions : Front: C
Sampling rate : 48.0 kHz
Frame rate : 1 200.000 FPS (40 SPF)
Compression mode : Lossless
Stream size : 135 MiB (14%)
Default : Yes
Forced : No


Screenshots

Slayers Evolution-R (2009)

Slayers Evolution-R (2009)

Slayers Evolution-R (2009)


My publications | Rss Channel