Tags
Language
Tags

Shironeko Project: Zero Chronicle (2020) (1-5)

Posted By: Lebedev30
Shironeko Project: Zero Chronicle (2020) (1-5)

Shironeko Project: Zero Chronicle (2020) (1-5)
WEBRip | MKV | 1920x1080 | H264@8000 Kbps | 5x ~ 25mn | 5x ~1.3 Gb
日本語 AAC@253 Kbps | 2 channels | Subtitles: English
Genre: fantasy, magic


Description:
* Based on a free-to-play action role-playing game developed and published by Colopl.

There are two kingdoms in this world – the Kingdom of Light on a floating island in the sky and the Kingdom of Darkness on the ground below it. Both are supposed to maintain the balance between Light and Darkness, but in recent times the King of Darkness has begun to fail in his duties. Frustrated by the deaths of everyone in his village due to uncontrolled monsters, a young man takes a dying knight up on his offer to go to the capital as his successor in order to become the Prince of Darkness. Meanwhile, in the sky, Queen Iris of the Light uses the powers of the Progenitor Rune to uphold her end of the bargain, even as the King of Darkness' inaction makes her battle appear futile.






01. The Land Protected by Light
02. The World`s Egoism
03. The Grief-Stricken Queen of Light
04. The Messenger from Black
05. United Front


General
Format : Matroska
Format version : Version 4 / Version 2
File size : 1.34 GiB
Duration : 23 min 47 s
Overall bit rate : 8 047 kb/s
Encoded date : UTC 2020-04-06 19:45:55
Writing application : mkvmerge v44.0.0 ('Domino') 64-bit
Writing library : libebml v1.3.10 + libmatroska v1.5.2

Video
ID : 1
Format : AVC
Format/Info : Advanced Video Codec
Format profile : High@L4
Format settings : CABAC / 4 Ref Frames
Format settings, CABAC : Yes
Format settings, RefFrames : 4 frames
Codec ID : V_MPEG4/ISO/AVC
Duration : 23 min 46 s
Bit rate : 8 000 kb/s
Width : 1 920 pixels
Height : 1 080 pixels
Display aspect ratio : 16:9
Frame rate mode : Constant
Frame rate : 23.976 (24000/1001) FPS
Color space : YUV
Chroma subsampling : 4:2:0
Bit depth : 8 bits
Scan type : Progressive
Bits/(Pixel*Frame) : 0.161
Stream size : 1.29 GiB (97%)
Writing library : x264 core 157 r2948 dada181
Encoding settings : cabac=1 / ref=1 / deblock=1:0:0 / analyse=0x3:0x113 / me=hex / subme=7 / psy=1 / psy_rd=1.00:0.00 / mixed_ref=0 / me_range=16 / chroma_me=1 / trellis=1 / 8x8dct=1 / cqm=0 / deadzone=21,11 / fast_pskip=1 / chroma_qp_offset=-2 / threads=24 / lookahead_threads=4 / sliced_threads=0 / nr=0 / decimate=1 / interlaced=0 / bluray_compat=0 / constrained_intra=0 / bframes=2 / b_pyramid=2 / b_adapt=1 / b_bias=0 / direct=1 / weightb=1 / open_gop=0 / weightp=2 / keyint=48 / keyint_min=4 / scenecut=40 / intra_refresh=0 / rc_lookahead=40 / rc=cbr / mbtree=1 / bitrate=8000 / ratetol=1.0 / qcomp=0.60 / qpmin=0 / qpmax=69 / qpstep=4 / vbv_maxrate=8000 / vbv_bufsize=24000 / nal_hrd=none / filler=0 / ip_ratio=1.40 / aq=1:1.00
Default : Yes
Forced : No

Audio
ID : 2
Format : AAC
Format/Info : Advanced Audio Codec
Format profile : LC
Codec ID : A_AAC-2
Duration : 23 min 47 s
Bit rate : 253 kb/s
Channel(s) : 2 channels
Channel positions : Front: L R
Sampling rate : 48.0 kHz
Frame rate : 46.875 FPS (1024 SPF)
Compression mode : Lossy
Delay relative to video : -43 ms
Stream size : 43.1 MiB (3%)
Language : Japanese
Default : Yes
Forced : No

Text
ID : 3
Format : ASS
Codec ID : S_TEXT/ASS
Codec ID/Info : Advanced Sub Station Alpha
Duration : 23 min 35 s
Bit rate : 97 b/s
Count of elements : 335
Compression mode : Lossless
Stream size : 16.8 KiB (0%)
Language : English
Default : Yes
Forced : No


Screenshots

Shironeko Project: Zero Chronicle (2020) (1-5)

Shironeko Project: Zero Chronicle (2020) (1-5)

Shironeko Project: Zero Chronicle (2020) (1-5)


My publications | Rss Channel