Tags
Language
Tags

Bessatsu Olympia Kyklos (2020) (4)

Posted By: Lebedev30
Bessatsu Olympia Kyklos (2020) (4)

Bessatsu Olympia Kyklos (2020) (4)
WEBRip | MKV | 1920x1080 | H264@8000 Kbps | 1x ~ 5mn | 1x ~290 Mb
日本語 AAC@128 Kbps | 2 channels | Subtitles: English, Español, Português, Русский, Deutsch, Français
Genre: short episodes


Description:
* Based on a comedy seinen manga by Yamazaki Mari.

Demetrios was a young man in Ancient Greece who was a potter's apprentice, but also a rather timid otaku. Despite pursuing the arts, he was blessed with natural athletic talent. One day, he gets dragged into a village conflict. Demetrios contemplates how helpless he is, but then is struck by lightning! When he comes to, he is no longer in Greece, but a strange land where he can't understand the language and people look rather different.

Yes, he somehow ended up 1964 Tokyo! Of course, Demetrios has no idea what Japan even is. What will become of him?!




04. It Always Starts with Zeus


General
Format : Matroska
Format version : Version 4 / Version 2
File size : 291 MiB
Duration : 5 min 2 s
Overall bit rate : 8 074 kb/s
Encoded date : UTC 2020-05-11 14:23:53
Writing application : mkvmerge v26.0.0 ('In The Game') 64-bit
Writing library : libebml v1.3.6 + libmatroska v1.4.9

Video
ID : 1
Format : AVC
Format/Info : Advanced Video Codec
Format profile : High@L4
Format settings : CABAC / 4 Ref Frames
Format settings, CABAC : Yes
Format settings, RefFrames : 4 frames
Codec ID : V_MPEG4/ISO/AVC
Duration : 5 min 0 s
Bit rate : 8 000 kb/s
Width : 1 920 pixels
Height : 1 080 pixels
Display aspect ratio : 16:9
Frame rate mode : Constant
Frame rate : 29.970 (30000/1001) FPS
Color space : YUV
Chroma subsampling : 4:2:0
Bit depth : 8 bits
Scan type : Progressive
Bits/(Pixel*Frame) : 0.129
Stream size : 286 MiB (98%)
Writing library : x264 core 142
Encoding settings : cabac=1 / ref=4 / deblock=1:1:1 / analyse=0x3:0x113 / me=umh / subme=8 / psy=1 / psy_rd=0.40:0.00 / mixed_ref=1 / me_range=16 / chroma_me=1 / trellis=1 / 8x8dct=1 / cqm=0 / deadzone=21,11 / fast_pskip=1 / chroma_qp_offset=-2 / threads=12 / lookahead_threads=2 / sliced_threads=0 / nr=0 / decimate=1 / interlaced=0 / bluray_compat=0 / constrained_intra=0 / bframes=0 / weightp=2 / keyint=120 / keyint_min=60 / scenecut=40 / intra_refresh=0 / rc_lookahead=60 / rc=2pass / mbtree=1 / bitrate=8000 / ratetol=1.0 / qcomp=0.60 / qpmin=0 / qpmax=69 / qpstep=4 / cplxblur=20.0 / qblur=0.5 / vbv_maxrate=12000 / vbv_bufsize=18000 / nal_hrd=none / filler=0 / ip_ratio=1.40 / aq=1:0.60
Default : Yes
Forced : No

Audio
ID : 2
Format : AAC
Format/Info : Advanced Audio Codec
Format profile : LC
Codec ID : A_AAC-2
Duration : 5 min 0 s
Bit rate : 128 kb/s
Channel(s) : 2 channels
Channel positions : Front: L R
Sampling rate : 44.1 kHz
Frame rate : 43.066 FPS (1024 SPF)
Compression mode : Lossy
Stream size : 4.58 MiB (2%)
Default : Yes
Forced : No

Text #1
ID : 3
Format : ASS
Codec ID : S_TEXT/ASS
Codec ID/Info : Advanced Sub Station Alpha
Duration : 4 min 55 s
Bit rate : 267 b/s
Count of elements : 131
Compression mode : Lossless
Stream size : 9.65 KiB (0%)
Title : English(US)
Language : English
Default : Yes
Forced : No

Text #2
ID : 4
Format : ASS
Codec ID : S_TEXT/ASS
Codec ID/Info : Advanced Sub Station Alpha
Duration : 4 min 55 s
Bit rate : 328 b/s
Count of elements : 135
Compression mode : Lossless
Stream size : 11.8 KiB (0%)
Title : Arabic
Language : Arabic
Default : No
Forced : No

Text #3
ID : 5
Format : ASS
Codec ID : S_TEXT/ASS
Codec ID/Info : Advanced Sub Station Alpha
Duration : 4 min 29 s
Bit rate : 214 b/s
Count of elements : 89
Compression mode : Lossless
Stream size : 7.04 KiB (0%)
Title : Francais(France)
Language : French
Default : No
Forced : No

Text #4
ID : 6
Format : ASS
Codec ID : S_TEXT/ASS
Codec ID/Info : Advanced Sub Station Alpha
Duration : 5 min 1 s
Bit rate : 376 b/s
Count of elements : 187
Compression mode : Lossless
Stream size : 13.9 KiB (0%)
Title : Deutsch
Language : German
Default : No
Forced : No

Text #5
ID : 7
Format : ASS
Codec ID : S_TEXT/ASS
Codec ID/Info : Advanced Sub Station Alpha
Duration : 4 min 55 s
Bit rate : 265 b/s
Count of elements : 132
Compression mode : Lossless
Stream size : 9.58 KiB (0%)
Title : Portugues(Brasil)
Language : Portuguese
Default : No
Forced : No

Text #6
ID : 8
Format : ASS
Codec ID : S_TEXT/ASS
Codec ID/Info : Advanced Sub Station Alpha
Duration : 4 min 55 s
Bit rate : 340 b/s
Count of elements : 131
Compression mode : Lossless
Stream size : 12.3 KiB (0%)
Title : Russian
Language : Russian
Default : No
Forced : No


Screenshots

Bessatsu Olympia Kyklos (2020) (4)

Bessatsu Olympia Kyklos (2020) (4)

Bessatsu Olympia Kyklos (2020) (4)


My publications | Rss Channel