Tags
Language
Tags

Plunderer (2019-) (17-22)

Posted By: Lebedev30
Plunderer (2019-) (17-22)

Plunderer (2019-) (17-22)
WEBRip | MKV | 1920x1080 | H264@7383 Kbps | 6x ~ 25mn | 6x ~1.2 Gb
日本語 AAC@253 Kbps | 2 channels | Subtitles: English
Genre: Action, Fantasy


Description:
* Based on an action seinen manga by Minazuki Suu.

In the world of Alcia' where rank is determined by "counts" a young girl named Hina scours the land for the fabled Ace-the legendary hero of the Waste War. With only the last words of her missing mother to guide her search' she wanders from town to town until she meets Licht' a clownish masked vagrant with a count of -999. Girl-crazy and unpredictable' he's the exact opposite of a hero…or at least' that's how he appears…






17. Ace of Flashing Strikes
18. Birth of Alcia
19. Cheating
20. Rain
21. Father
22. Promise


General
Format : Matroska
Format version : Version 4 / Version 2
File size : 1.23 GiB
Duration : 22 min 50 s
Overall bit rate : 7 683 kb/s
Encoded date : UTC 2020-05-07 09:17:25
Writing application : mkvmerge v26.0.0 ('In The Game') 64-bit
Writing library : libebml v1.3.6 + libmatroska v1.4.9

Video
ID : 1
Format : AVC
Format/Info : Advanced Video Codec
Format profile : High@L4
Format settings : CABAC / 4 Ref Frames
Format settings, CABAC : Yes
Format settings, RefFrames : 4 frames
Codec ID : V_MPEG4/ISO/AVC
Duration : 22 min 50 s
Bit rate : 7 428 kb/s
Nominal bit rate : 8 000 kb/s
Width : 1 920 pixels
Height : 1 080 pixels
Display aspect ratio : 16:9
Frame rate mode : Constant
Frame rate : 23.976 (24000/1001) FPS
Color space : YUV
Chroma subsampling : 4:2:0
Bit depth : 8 bits
Scan type : Progressive
Bits/(Pixel*Frame) : 0.149
Stream size : 1.18 GiB (97%)
Writing library : x264 core 157 r2948 dada181
Encoding settings : cabac=1 / ref=1 / deblock=1:0:0 / analyse=0x3:0x113 / me=hex / subme=7 / psy=1 / psy_rd=1.00:0.00 / mixed_ref=0 / me_range=16 / chroma_me=1 / trellis=1 / 8x8dct=1 / cqm=0 / deadzone=21,11 / fast_pskip=1 / chroma_qp_offset=-2 / threads=24 / lookahead_threads=4 / sliced_threads=0 / nr=0 / decimate=1 / interlaced=0 / bluray_compat=0 / constrained_intra=0 / bframes=2 / b_pyramid=2 / b_adapt=1 / b_bias=0 / direct=1 / weightb=1 / open_gop=0 / weightp=2 / keyint=48 / keyint_min=4 / scenecut=40 / intra_refresh=0 / rc_lookahead=40 / rc=cbr / mbtree=1 / bitrate=8000 / ratetol=1.0 / qcomp=0.60 / qpmin=0 / qpmax=69 / qpstep=4 / vbv_maxrate=8000 / vbv_bufsize=24000 / nal_hrd=none / filler=0 / ip_ratio=1.40 / aq=1:1.00
Default : Yes
Forced : No

Audio
ID : 2
Format : AAC
Format/Info : Advanced Audio Codec
Format profile : LC
Codec ID : A_AAC-2
Duration : 22 min 50 s
Bit rate : 253 kb/s
Channel(s) : 2 channels
Channel positions : Front: L R
Sampling rate : 48.0 kHz
Frame rate : 46.875 FPS (1024 SPF)
Compression mode : Lossy
Delay relative to video : -43 ms
Stream size : 41.4 MiB (3%)
Language : Japanese
Default : Yes
Forced : No

Text
ID : 3
Format : ASS
Codec ID : S_TEXT/ASS
Codec ID/Info : Advanced Sub Station Alpha
Duration : 22 min 30 s
Bit rate : 77 b/s
Count of elements : 250
Compression mode : Lossless
Stream size : 12.8 KiB (0%)
Title : English(US)
Language : English
Default : Yes
Forced : No


Screenshots

Plunderer (2019-) (17-22)

Plunderer (2019-) (17-22)

Plunderer (2019-) (17-22)


My publications | Rss Channel