Tags
Language
Tags

Haja Taisei Dangaiou (1987-1989)

Posted By: Lebedev30
Haja Taisei Dangaiou (1987-1989)

Haja Taisei Dangaiou (1987-1989)
BDRip | MKV | 1440x1080 | H264@~5000 Kbps | 3x ~ 43mn | 3x ~2 Gb
Japanese PCM@1536 Kbps | 2 channels | Subtitles: None
Genre: action, alien, angst, cyborg, mecha, science fiction, space travel, super power, tragedy


Description:
A group of 4 young people with various ESPer abilities are told that they are the new weapon created by Professor Tarson. In reality, they were all kidnapped and their memories erased. Together, they can control a new superweapon/robot: Dangaioh. This is the story of how each discovers his/her past while being pursued by the "Bunker"…a space-based criminal conglomerate. A typical giant-robot story with unusual characters.




01. Dangaio
02. Spiral Knuckles in Tears
03. The Demonic Revenge of Gil Berg


General
Format : Matroska
Format version : Version 4 / Version 2
File size : 2.00 GiB
Duration : 43 min 51 s
Overall bit rate : 6 538 kb/s
Encoded date : UTC 2020-09-26 05:02:45
Writing application : mkvmerge v32.0.0 ('Astral Progressions') 64-bit
Writing library : libebml v1.3.7 + libmatroska v1.5.0

Video
ID : 2
Format : AVC
Format/Info : Advanced Video Codec
Format profile : High@L5
Format settings : CABAC / 16 Ref Frames
Format settings, CABAC : Yes
Format settings, RefFrames : 16 frames
Codec ID : V_MPEG4/ISO/AVC
Duration : 43 min 51 s
Bit rate : 5 000 kb/s
Width : 1 440 pixels
Height : 1 080 pixels
Display aspect ratio : 4:3
Frame rate mode : Constant
Frame rate : 23.976 (24000/1001) FPS
Color space : YUV
Chroma subsampling : 4:2:0
Bit depth : 8 bits
Scan type : Progressive
Bits/(Pixel*Frame) : 0.134
Stream size : 1.53 GiB (76%)
Writing library : x264 core 157 r2969 d4099dd
Encoding settings : cabac=1 / ref=16 / deblock=1:0:0 / analyse=0x3:0x133 / me=tesa / subme=11 / psy=1 / psy_rd=1.00:0.00 / mixed_ref=1 / me_range=24 / chroma_me=1 / trellis=2 / 8x8dct=1 / cqm=0 / deadzone=21,11 / fast_pskip=0 / chroma_qp_offset=-2 / threads=12 / lookahead_threads=3 / sliced_threads=0 / nr=0 / decimate=1 / interlaced=0 / bluray_compat=0 / constrained_intra=0 / bframes=16 / b_pyramid=2 / b_adapt=2 / b_bias=0 / direct=3 / weightb=1 / open_gop=0 / weightp=2 / keyint=240 / keyint_min=23 / scenecut=40 / intra_refresh=0 / rc_lookahead=60 / rc=2pass / mbtree=1 / bitrate=5000 / ratetol=1.0 / qcomp=0.60 / qpmin=0 / qpmax=69 / qpstep=4 / cplxblur=20.0 / qblur=0.5 / ip_ratio=1.40 / aq=1:1.00
Default : Yes
Forced : No

Audio
ID : 1
Format : PCM
Format settings : Little / Signed
Codec ID : A_PCM/INT/LIT
Duration : 43 min 51 s
Bit rate mode : Constant
Bit rate : 1 536 kb/s
Channel(s) : 2 channels
Sampling rate : 48.0 kHz
Frame rate : 200.000 FPS (240 SPF)
Bit depth : 16 bits
Stream size : 482 MiB (23%)
Language : Japanese
Default : Yes
Forced : No

Menu
00:00:00.000 : en:Avant Title
00:03:31.545 : en:Opening
00:05:01.635 : en:Main
00:42:27.170 : en:Ending


Screenshots

Haja Taisei Dangaiou (1987-1989)

Haja Taisei Dangaiou (1987-1989)

Haja Taisei Dangaiou (1987-1989)


My publications | Rss Channel