Tags
Language
Tags

Fairy Tail (2018) (1-26)

Posted By: Lebedev30
Fairy Tail (2018) (1-26)

Fairy Tail (2018) (1-26)
BDRip | MKV | 1920x1080 | H264@~4500 Kbps | 26x ~ 24mn | 26x ~0.9 Gb
Japanese TrueHD@1241 Kbps | 2 channels | Subtitles: None
Genre: action, adventure, comedy, ecchi, fantasy, magic, romance, shounen


Description:
* Based on a fantasy shounen manga series written and illustrated by Mashima Hiro. It was serialized in Kodansha's Weekly Shonen Magazine from August 2006 to July 2017 with 63 volumes. In 2018 the sequel manga Fairy Tail 100 Years Quest was started.

The last year saw major changes for certain parties in Earth Land. First, fueled by the tragic death of his foster father Igneel and the constant battles against the Dark Guild Tartaros, Natsu left to travel the lands with Happy, a renewed determination to become even more powerful lighting his fire.

Even more surprising was the disbandment of the Fairy Tail guild, a command which came from Fairy Tail Master Makarov himself without any explanation or prior notice. Much like Natsu and Happy, Makarov's location was also kept secret.

During that time, Lucy landed a job as a reporter. Though she was committed to her work, she also decided to use her skills and resources to gather news of her friends as they moved about the continent. Working away with no real plan, Lucy thought her next big assignment at covering the annual Grand Magic Game would go off without a hitch… until Natsu and Happy make a grand appearance and reunite with her once again.

Now, with the revival of Fairy Tail on their minds, Lucy, Natsu, and Happy set out on a new journey to find the rest of their friends and former guildmates to get things back to how they should be.






01. The Lamia Scale Thanksgiving Festival
02. Because of Love
03. Avatar
04. Underground Clash
05. The Purification Plan
06. Ikusatsunagi
07. Memoirs
08. The 7th Guild Master
09. Law of Space
10. Emperor Spriggan
11. To the God-Forsaken Land
12. Mavis and Zeref
13. Fairy Heart
14. The Magnolia Defensive War
15. Morning Star
16. For Whom the Parfum Flows
17. Natsu vs. Zeref
18. Across 400 Years
19. What I Want to Do
20. Not Until the Battle Is Over
21. In a Silent Time
22. Natsu, Revived!!
23. Historia of Corpses
24. Mettle
25. The Third Seal
26. Together, Always


General
Format : Matroska
Format version : Version 4 / Version 2
File size : 992 MiB
Duration : 23 min 52 s
Overall bit rate mode : Variable
Overall bit rate : 5 809 kb/s
Encoded date : UTC 2020-08-15 18:37:07
Writing application : mkvmerge v32.0.0 ('Astral Progressions') 64-bit
Writing library : libebml v1.3.7 + libmatroska v1.5.0

Video
ID : 2
Format : AVC
Format/Info : Advanced Video Codec
Format profile : High 10@L5.1
Format settings : CABAC / 16 Ref Frames
Format settings, CABAC : Yes
Format settings, RefFrames : 16 frames
Codec ID : V_MPEG4/ISO/AVC
Duration : 23 min 52 s
Bit rate : 4 500 kb/s
Width : 1 920 pixels
Height : 1 080 pixels
Display aspect ratio : 16:9
Frame rate mode : Constant
Frame rate : 23.976 (24000/1001) FPS
Color space : YUV
Chroma subsampling : 4:2:0
Bit depth : 10 bits
Scan type : Progressive
Bits/(Pixel*Frame) : 0.091
Stream size : 769 MiB (78%)
Writing library : x264 core 157 r2969 d4099dd
Encoding settings : cabac=1 / ref=16 / deblock=1:0:0 / analyse=0x3:0x133 / me=tesa / subme=11 / psy=1 / psy_rd=1.00:0.00 / mixed_ref=1 / me_range=24 / chroma_me=1 / trellis=2 / 8x8dct=1 / cqm=0 / deadzone=21,11 / fast_pskip=0 / chroma_qp_offset=-2 / threads=12 / lookahead_threads=3 / sliced_threads=0 / nr=0 / decimate=1 / interlaced=0 / bluray_compat=0 / constrained_intra=0 / bframes=16 / b_pyramid=2 / b_adapt=2 / b_bias=0 / direct=3 / weightb=1 / open_gop=0 / weightp=2 / keyint=240 / keyint_min=23 / scenecut=40 / intra_refresh=0 / rc_lookahead=60 / rc=2pass / mbtree=1 / bitrate=4500 / ratetol=1.0 / qcomp=0.60 / qpmin=0 / qpmax=81 / qpstep=4 / cplxblur=20.0 / qblur=0.5 / ip_ratio=1.40 / aq=1:1.00
Default : Yes
Forced : No

Audio
ID : 1
Format : TrueHD
Codec ID : A_TRUEHD
Duration : 23 min 52 s
Bit rate mode : Variable
Bit rate : 1 241 kb/s
Maximum bit rate : 1 614 kb/s
Channel(s) : 2 channels
Channel positions : Front: C
Sampling rate : 48.0 kHz
Frame rate : 1 200.000 FPS (40 SPF)
Compression mode : Lossless
Stream size : 212 MiB (21%)
Default : No
Forced : No


Screenshots

Fairy Tail (2018) (1-26)

Fairy Tail (2018) (1-26)

Fairy Tail (2018) (1-26)


My publications | Rss Channel