Tags
Language
Tags

Gakuen Mokushiroku: High School of the Dead (2010-2011)

Posted By: Lebedev30
Gakuen Mokushiroku: High School of the Dead (2010-2011)

Gakuen Mokushiroku: High School of the Dead (2010-2011)
BDRip | MKV | 1918x1080 | H264@~10000 Kbps | 13x ~ 24mn | 13x ~1.7 Gb
Japanese FLAC@683 Kbps | 2 channels | Subtitles: Русский
Genre: action, angst, coming of age, ecchi, gunfights, harem, horror, large breasts, pantsu, post-apocalyptic, rotten world, shounen, swordplay, violence


Description:
* Based on the manga written by Satou Daisuke, illustrated by Satou Shouji.

The world is ravaged by a deadly disease that turns humans into zombies. In Japan, several students of Fujimi High School, and the school nurse, band together to survive this apocalypse. Komuro Takashi is one of the students who survived the initial outbreak.








01. Spring of the Dead
02. Escape from the Dead
03. Democracy Under the Dead
04. Running in the Dead
05. Streets of the Dead
06. In the Dead of the Night
07. Dead Night and the Dead Ruck
08. The Dead Way Home
09. The Sword and Dead
10. The Dead`s House Rules
11. Dead Storm Rising
12. All Dead`s Attack
01. OAD


General
Format : Matroska
Format version : Version 4 / Version 2
File size : 1.77 GiB
Duration : 23 min 42 s
Overall bit rate mode : Variable
Overall bit rate : 10.7 Mb/s
Encoded date : UTC 2020-10-08 06:06:45
Writing application : mkvmerge v32.0.0 ('Astral Progressions') 64-bit
Writing library : libebml v1.3.7 + libmatroska v1.5.0

Video
ID : 3
Format : AVC
Format/Info : Advanced Video Codec
Format profile : High@L5.1
Format settings : CABAC / 16 Ref Frames
Format settings, CABAC : Yes
Format settings, RefFrames : 16 frames
Codec ID : V_MPEG4/ISO/AVC
Duration : 23 min 40 s
Bit rate : 10 000 kb/s
Width : 1 918 pixels
Height : 1 080 pixels
Display aspect ratio : 16:9
Frame rate mode : Constant
Frame rate : 23.976 (24000/1001) FPS
Color space : YUV
Chroma subsampling : 4:2:0
Bit depth : 8 bits
Scan type : Progressive
Bits/(Pixel*Frame) : 0.201
Stream size : 1.65 GiB (94%)
Writing library : x264 core 157 r2969 d4099dd
Encoding settings : cabac=1 / ref=16 / deblock=1:0:0 / analyse=0x3:0x133 / me=tesa / subme=11 / psy=1 / psy_rd=1.00:0.00 / mixed_ref=1 / me_range=24 / chroma_me=1 / trellis=2 / 8x8dct=1 / cqm=0 / deadzone=21,11 / fast_pskip=0 / chroma_qp_offset=-2 / threads=12 / lookahead_threads=3 / sliced_threads=0 / nr=0 / decimate=1 / interlaced=0 / bluray_compat=0 / constrained_intra=0 / bframes=16 / b_pyramid=2 / b_adapt=2 / b_bias=0 / direct=3 / weightb=1 / open_gop=0 / weightp=2 / keyint=240 / keyint_min=23 / scenecut=40 / intra_refresh=0 / rc_lookahead=60 / rc=2pass / mbtree=1 / bitrate=10000 / ratetol=1.0 / qcomp=0.60 / qpmin=0 / qpmax=69 / qpstep=4 / cplxblur=20.0 / qblur=0.5 / ip_ratio=1.40 / aq=1:1.00
Default : Yes
Forced : No

Audio
ID : 2
Format : FLAC
Format/Info : Free Lossless Audio Codec
Codec ID : A_FLAC
Duration : 23 min 39 s
Bit rate mode : Variable
Bit rate : 683 kb/s
Channel(s) : 2 channels
Channel positions : Front: L R
Sampling rate : 48.0 kHz
Frame rate : 11.719 FPS (4096 SPF)
Bit depth : 16 bits
Stream size : 116 MiB (6%)
Writing library : libFLAC 1.3.2 (UTC 2017-01-01)
Default : Yes
Forced : No

Text
ID : 1
Format : ASS
Codec ID : S_TEXT/ASS
Codec ID/Info : Advanced Sub Station Alpha
Duration : 23 min 37 s
Bit rate : 151 b/s
Count of elements : 358
Compression mode : Lossless
Stream size : 26.2 KiB (0%)
Default : Yes
Forced : No

Menu
00:00:00.000 : en:00:00:00.000
00:02:02.998 : en:00:02:02.998
00:03:33.004 : en:00:03:33.004
00:10:15.990 : en:00:10:15.990
00:19:47.686 : en:00:19:47.686
00:21:18.986 : en:00:21:18.986
00:23:25.946 : en:00:23:25.946


Screenshots

Gakuen Mokushiroku: High School of the Dead (2010-2011)

Gakuen Mokushiroku: High School of the Dead (2010-2011)

Gakuen Mokushiroku: High School of the Dead (2010-2011)


My publications | Rss Channel