Tags
Language
Tags

Love Live! School Idol Project (2013-2015)

Posted By: Lebedev30
Love Live! School Idol Project (2013-2015)

Love Live! School Idol Project (2013-2015)
BDRip | MKV | 1920x1080 | H264@~5000 Kbps | 27x ~ 24mn | 27x ~1.2 Gb
Japanese PCM@2304 Kbps | 2 channels | Subtitles: None
Genre: high school, idol, music, performance, school clubs, school life, the arts


Description:
The school idol project is set at a school between Tokyo's Akihabara, Kanda, and Jinbouchou neighbourhoods. The school faces the danger of being streamlined out of existence, so nine of its female students decide to become idols to protect their school and boost attendance.












01. May Our Dream Come True!
02. Let`s Be Idols!
03. First Concert
04. Makirinpana
05. Nico Attacks
06. Who Is the Center?
07. Elichika
08. What I Want to Do
09. Wonder Zone
10. No Senpai Allowed!
11. The Greatest Concert
12. Friends
13. M`s Music Start!
01. Another Love Live!
02. Aiming for Victory
03. Door of Dreams
04. Universe No. 1 Idol
05. A New Me
06. Happy Halloween
07. We Have to Do Something!
08. My Wish
09. Melody of the Heart
10. Muse
11. What We`ve Decided
12. Last Live
13. Achieve! Everyone`s Dream
01. OVA
01. Complete Movie


General
Format : Matroska
Format version : Version 4 / Version 2
File size : 1.21 GiB
Duration : 23 min 43 s
Overall bit rate : 7 313 kb/s
Encoded date : UTC 2020-09-10 11:26:31
Writing application : mkvmerge v32.0.0 ('Astral Progressions') 64-bit
Writing library : libebml v1.3.7 + libmatroska v1.5.0

Video
ID : 2
Format : AVC
Format/Info : Advanced Video Codec
Format profile : High@L5.1
Format settings : CABAC / 16 Ref Frames
Format settings, CABAC : Yes
Format settings, RefFrames : 16 frames
Codec ID : V_MPEG4/ISO/AVC
Duration : 23 min 43 s
Bit rate : 5 000 kb/s
Width : 1 920 pixels
Height : 1 080 pixels
Display aspect ratio : 16:9
Frame rate mode : Constant
Frame rate : 23.976 (24000/1001) FPS
Color space : YUV
Chroma subsampling : 4:2:0
Bit depth : 8 bits
Scan type : Progressive
Bits/(Pixel*Frame) : 0.101
Stream size : 849 MiB (68%)
Writing library : x264 core 157 r2969 d4099dd
Encoding settings : cabac=1 / ref=16 / deblock=1:0:0 / analyse=0x3:0x133 / me=tesa / subme=11 / psy=1 / psy_rd=1.00:0.00 / mixed_ref=1 / me_range=24 / chroma_me=1 / trellis=2 / 8x8dct=1 / cqm=0 / deadzone=21,11 / fast_pskip=0 / chroma_qp_offset=-2 / threads=12 / lookahead_threads=3 / sliced_threads=0 / nr=0 / decimate=1 / interlaced=0 / bluray_compat=0 / constrained_intra=0 / bframes=16 / b_pyramid=2 / b_adapt=2 / b_bias=0 / direct=3 / weightb=1 / open_gop=0 / weightp=2 / keyint=240 / keyint_min=23 / scenecut=40 / intra_refresh=0 / rc_lookahead=60 / rc=2pass / mbtree=1 / bitrate=5000 / ratetol=1.0 / qcomp=0.60 / qpmin=0 / qpmax=69 / qpstep=4 / cplxblur=20.0 / qblur=0.5 / ip_ratio=1.40 / aq=1:1.00
Default : Yes
Forced : No

Audio
ID : 1
Format : PCM
Format settings : Little / Signed
Codec ID : A_PCM/INT/LIT
Duration : 23 min 43 s
Bit rate mode : Constant
Bit rate : 2 304 kb/s
Channel(s) : 2 channels
Sampling rate : 48.0 kHz
Frame rate : 32.000 FPS (1500 SPF)
Bit depth : 24 bits
Stream size : 391 MiB (32%)
Language : Japanese
Default : Yes
Forced : No

Menu
00:00:00.000 : en:Prologue
00:01:14.407 : en:OP
00:02:45.039 : en:Part 1
00:13:24.011 : en:Part 2
00:20:43.325 : en:Part 3 / ED
00:21:32.207 : en:ED
00:23:36.998 : en:Preview


Screenshots

Love Live! School Idol Project (2013-2015)

Love Live! School Idol Project (2013-2015)

Love Live! School Idol Project (2013-2015)


My publications | Rss Channel