Tags
Language
Tags

Boku wa Tomodachi ga Sukunai (2011-2013)

Posted By: Lebedev30
Boku wa Tomodachi ga Sukunai (2011-2013)

Boku wa Tomodachi ga Sukunai (2011-2013)
BDRip | MKV | 1920x1080 | H264@~10000 Kbps | 26x ~ 24mn | 26x ~1.9 Gb
Japanese PCM@1536 Kbps | 2 channels | Subtitles: Русский
Genre: comedy, ecchi, harem, parody, school clubs, school life, seinen


Description:
* Based on a light novel series by Hirasaka Yomi with illustrations by Buriki.

Hasegawa Kodaka, a half-Japanese / half-British boy, has recently transferred to a Catholic high school, the St. Chronica's Academy, and as always, finds it impossible to make friends there due to his naturally blond hair, inherited from his dead English mother, which makes him look like a dangerous delinquent to his prejudiced peers. One day after school, he enters the classroom witnessing the equally solitary and very abrasive girl Mikazuki Yozora while she speaks to her imaginary friend Tomo. They decide that the best way to improve their social standing is to form a club — the Rinjinbu (Neighbour's Club) — just to make friends and learn social skills.

Five other members soon join, starting with the school's well-connected and arrogant idol Kashiwazaki Sena, who has many male admirers but no female friends due to jealousy. Kusunoki Yukimura, a student often dressed as a maid, who idealises and follows Kodaka in the hope of learning to become manlier. Kobato, Kodaka's younger sister who is attending St. Chronica's middle school division and has a penchant for darkness, vampires and the macabre ever since she started watching an anime called Full Metal Necromancer. Shiguma Rika, a perverted underclassman and well-known scientific genius, who speaks in the third person and was saved by Kodaka during a failed experiment, thereafter trying to repay him with sex. And finally Takayama Maria, a precocious 10-year-old teacher and nun at the academy, who becomes the club adviser.












01. We Can`t Make Any Friends
02. There`s No God in the Electric World
03. There Are No Flags at the Swimming Pool
04. Underclassmen Don`t Hold Back
05. This Time, the SAGA Is a Serious Battle
06. There Aren`t Many Customers at the Karaoke Box
07. My Cell Phone Doesn`t Get Many Calls
08. School Swimsuits Don`t Appear
09. The President`s Recollections Are Painful
10. No One Sleeps at Camp
11. Girls Are Super-Cute in Yukatas
12. We Don`t Have Many Friends
01. Yeah, My Youth Is Seriously Wrong
02. Homo Game Club
03. My Little Sisters Are This Cute
04. A Man Is Among Them!
05. That Kind of Play Is Not Allowed! My Worldview Is Disturbed When You Are Around
06. Unbreakable Strange-Girl
07. He`s My Brother, but As Long As There`s Love, It Doesn`t Matter If He Gets More Sisters, Right?
08. My Childhoold Friend Is Too Much of a Battleground
09. Stray Cats Overheat
10. The Sad-Case King and the Stone-Cold Story
11. Dismay of I, the Chicken
12. I… Many Friends
01. OVA
01. OAD


General
Format : Matroska
Format version : Version 4 / Version 2
File size : 1.98 GiB
Duration : 24 min 32 s
Overall bit rate : 11.5 Mb/s
Encoded date : UTC 2020-08-30 09:53:33
Writing application : mkvmerge v32.0.0 ('Astral Progressions') 64-bit
Writing library : libebml v1.3.7 + libmatroska v1.5.0

Video
ID : 3
Format : AVC
Format/Info : Advanced Video Codec
Format profile : High@L5.1
Format settings : CABAC / 16 Ref Frames
Format settings, CABAC : Yes
Format settings, RefFrames : 16 frames
Codec ID : V_MPEG4/ISO/AVC
Duration : 24 min 32 s
Bit rate : 10 000 kb/s
Width : 1 920 pixels
Height : 1 080 pixels
Display aspect ratio : 16:9
Frame rate mode : Constant
Frame rate : 23.976 (24000/1001) FPS
Color space : YUV
Chroma subsampling : 4:2:0
Bit depth : 8 bits
Scan type : Progressive
Bits/(Pixel*Frame) : 0.201
Stream size : 1.71 GiB (87%)
Writing library : x264 core 157 r2969 d4099dd
Encoding settings : cabac=1 / ref=16 / deblock=1:0:0 / analyse=0x3:0x133 / me=tesa / subme=11 / psy=1 / psy_rd=1.00:0.00 / mixed_ref=1 / me_range=24 / chroma_me=1 / trellis=2 / 8x8dct=1 / cqm=0 / deadzone=21,11 / fast_pskip=0 / chroma_qp_offset=-2 / threads=12 / lookahead_threads=3 / sliced_threads=0 / nr=0 / decimate=1 / interlaced=0 / bluray_compat=0 / constrained_intra=0 / bframes=16 / b_pyramid=2 / b_adapt=2 / b_bias=0 / direct=3 / weightb=1 / open_gop=0 / weightp=2 / keyint=240 / keyint_min=23 / scenecut=40 / intra_refresh=0 / rc_lookahead=60 / rc=2pass / mbtree=1 / bitrate=10000 / ratetol=1.0 / qcomp=0.60 / qpmin=0 / qpmax=69 / qpstep=4 / cplxblur=20.0 / qblur=0.5 / ip_ratio=1.40 / aq=1:1.00
Default : Yes
Forced : No

Audio
ID : 1
Format : PCM
Format settings : Little / Signed
Codec ID : A_PCM/INT/LIT
Duration : 24 min 32 s
Bit rate mode : Constant
Bit rate : 1 536 kb/s
Channel(s) : 2 channels
Sampling rate : 48.0 kHz
Frame rate : 32.000 FPS (1500 SPF)
Bit depth : 16 bits
Stream size : 270 MiB (13%)
Language : Japanese
Default : Yes
Forced : No

Text
ID : 2
Format : ASS
Codec ID : S_TEXT/ASS
Codec ID/Info : Advanced Sub Station Alpha
Duration : 24 min 17 s
Bit rate : 200 b/s
Count of elements : 409
Compression mode : Lossless
Stream size : 35.6 KiB (0%)
Title : Stan WarHammer & Nesitach
Language : Russian
Default : Yes
Forced : No

Menu
00:00:00.000 : en:Avant
00:01:32.008 : en:Opening
00:03:01.806 : en:Special
00:03:11.983 : en:A Part
00:11:01.035 : en:B Part
00:22:21.006 : en:Ending
00:23:51.012 : en:Yokoku
00:24:20.876 : en:End Card


Screenshots

Boku wa Tomodachi ga Sukunai (2011-2013)

Boku wa Tomodachi ga Sukunai (2011-2013)

Boku wa Tomodachi ga Sukunai (2011-2013)

Boku wa Tomodachi ga Sukunai (2011-2013)


My publications | Rss Channel