Tags
Language
Tags

Manyuu Hiken-chou (2011)

Posted By:
Manyuu Hiken-chou (2011)

Manyuu Hiken-chou (2011)
BDRip | MKV | 1920x1080 | H264@~10000 Kbps | 12x ~ 24mn | 12x ~1.7 Gb
Japanese FLAC@723 Kbps | 2 channels | Subtitles: None
Genre: ecchi, gigantic breasts, large breasts, ninja, seinen


Description:
It is currently the Taiheimeji Era. It is a reign ruled by the Tokugawa shogunate. Inside this shogunate, there is a group of warriors that support the government. They are the Manyuu Clan.

In this current era, breasts mean everything. If you have breasts, you are guaranteed wealth and popularity. If you lack them, you are rarely considered human. Members of the Manyuu Clan help raise the future big breasts. Written on a secret scroll possessed by the clan, there is said to be various techniques on how to grow big and beautiful breasts.

Chifusa is to be successor of the clan. However, she takes the secret scroll and runs away with it, hoping to fight against the cruel world that the Manyuu Clan has created…






01. Chifusa Defects
02. Assassin! Breast Illusion
03. Mysterious Breast Disappearance
04. Divers and Breasts
05. Bastards and Breasts
06. Kagefusa Returns
07. Breast Brat
08. House of a Thousand Prisoners
09. Love Bud
10. The First Boob Hunt: A Hundred Times Three Boobs
11. Munamori Village
12. Chichi-nagare!


General
Format : Matroska
Format version : Version 4 / Version 2
File size : 1.77 GiB
Duration : 23 min 36 s
Overall bit rate mode : Variable
Overall bit rate : 10.7 Mb/s
Encoded date : UTC 2020-06-10 20:49:49
Writing application : mkvmerge v32.0.0 ('Astral Progressions') 64-bit
Writing library : libebml v1.3.7 + libmatroska v1.5.0

Video
ID : 2
Format : AVC
Format/Info : Advanced Video Codec
Format profile : High@L5.1
Format settings : CABAC / 16 Ref Frames
Format settings, CABAC : Yes
Format settings, RefFrames : 16 frames
Codec ID : V_MPEG4/ISO/AVC
Duration : 23 min 36 s
Bit rate : 10 000 kb/s
Width : 1 920 pixels
Height : 1 080 pixels
Display aspect ratio : 16:9
Frame rate mode : Constant
Frame rate : 23.976 (24000/1001) FPS
Color space : YUV
Chroma subsampling : 4:2:0
Bit depth : 8 bits
Scan type : Progressive
Bits/(Pixel*Frame) : 0.201
Stream size : 1.65 GiB (93%)
Writing library : x264 core 157 r2969 d4099dd
Encoding settings : cabac=1 / ref=16 / deblock=1:0:0 / analyse=0x3:0x133 / me=tesa / subme=11 / psy=1 / psy_rd=1.00:0.00 / mixed_ref=1 / me_range=24 / chroma_me=1 / trellis=2 / 8x8dct=1 / cqm=0 / deadzone=21,11 / fast_pskip=0 / chroma_qp_offset=-2 / threads=12 / lookahead_threads=3 / sliced_threads=0 / nr=0 / decimate=1 / interlaced=0 / bluray_compat=0 / constrained_intra=0 / bframes=16 / b_pyramid=2 / b_adapt=2 / b_bias=0 / direct=3 / weightb=1 / open_gop=0 / weightp=2 / keyint=240 / keyint_min=23 / scenecut=40 / intra_refresh=0 / rc_lookahead=60 / rc=2pass / mbtree=1 / bitrate=10000 / ratetol=1.0 / qcomp=0.60 / qpmin=0 / qpmax=69 / qpstep=4 / cplxblur=20.0 / qblur=0.5 / ip_ratio=1.40 / aq=1:1.00
Default : Yes
Forced : No

Audio
ID : 1
Format : FLAC
Format/Info : Free Lossless Audio Codec
Codec ID : A_FLAC
Duration : 23 min 36 s
Bit rate mode : Variable
Bit rate : 723 kb/s
Channel(s) : 2 channels
Channel positions : Front: L R
Sampling rate : 48.0 kHz
Frame rate : 11.719 FPS (4096 SPF)
Bit depth : 16 bits
Stream size : 122 MiB (7%)
Writing library : libFLAC 1.3.2 (UTC 2017-01-01)
Default : Yes
Forced : No

Menu
00:00:00.000 : en:Avant
00:01:54.030 : en:Opening
00:03:23.995 : en:Part A
00:10:34.050 : en:Part B
00:21:30.038 : en:Ending
00:23:10.013 : en:Yokoku


Screenshots

Manyuu Hiken-chou (2011)

Manyuu Hiken-chou (2011)

Manyuu Hiken-chou (2011)


My publications | Rss Channel