Tags
Language
Tags

Inuyasha Movie (1-5) (2001-2008)

Posted By: Lebedev30
Inuyasha Movie (1-5) (2001-2008)

Inuyasha Movie (1-5) (2001-2008)
BDRip | MKV | 1916x1048 | H264@~5000 Kbps | 5x ~ 100mn | 5x ~4.9 Gb
Japanese DTS@2048 / 1 509 Kbps | 6 channels | Subtitles: None
Genre: action, adventure, demon, fantasy, shounen, super power, swordplay, time travel


Description:
The island of Hourai, controlled by four demon gods. A girl who knows Inuyasha appears: "Ai." Unchanged for fifty years, what is this girl's secret? When the cursed seal comes to the surface, it begins Inuyasha and Sesshoumaru's newest battle!












01. Complete Movie
01. Complete Movie
01. Special
01. Complete Movie
01. Complete Movie


General
Format : Matroska
Format version : Version 4 / Version 2
File size : 4.92 GiB
Duration : 1 h 40 min
Overall bit rate : 7 039 kb/s
Encoded date : UTC 2020-10-16 23:30:20
Writing application : mkvmerge v32.0.0 ('Astral Progressions') 64-bit
Writing library : libebml v1.3.7 + libmatroska v1.5.0

Video
ID : 2
Format : AVC
Format/Info : Advanced Video Codec
Format profile : High@L5.1
Format settings : CABAC / 16 Ref Frames
Format settings, CABAC : Yes
Format settings, RefFrames : 16 frames
Codec ID : V_MPEG4/ISO/AVC
Duration : 1 h 40 min
Bit rate : 5 000 kb/s
Width : 1 916 pixels
Height : 1 048 pixels
Display aspect ratio : 1.85:1
Frame rate mode : Constant
Frame rate : 29.970 (30000/1001) FPS
Color space : YUV
Chroma subsampling : 4:2:0
Bit depth : 8 bits
Scan type : Progressive
Bits/(Pixel*Frame) : 0.083
Stream size : 3.49 GiB (71%)
Writing library : x264 core 157 r2969 d4099dd
Encoding settings : cabac=1 / ref=16 / deblock=1:0:0 / analyse=0x3:0x133 / me=tesa / subme=11 / psy=1 / psy_rd=1.00:0.00 / mixed_ref=1 / me_range=24 / chroma_me=1 / trellis=2 / 8x8dct=1 / cqm=0 / deadzone=21,11 / fast_pskip=0 / chroma_qp_offset=-2 / threads=12 / lookahead_threads=3 / sliced_threads=0 / nr=0 / decimate=1 / interlaced=0 / bluray_compat=0 / constrained_intra=0 / bframes=16 / b_pyramid=2 / b_adapt=2 / b_bias=0 / direct=3 / weightb=1 / open_gop=0 / weightp=2 / keyint=300 / keyint_min=29 / scenecut=40 / intra_refresh=0 / rc_lookahead=60 / rc=2pass / mbtree=1 / bitrate=5000 / ratetol=1.0 / qcomp=0.60 / qpmin=0 / qpmax=69 / qpstep=4 / cplxblur=20.0 / qblur=0.5 / ip_ratio=1.40 / aq=1:1.00
Default : Yes
Forced : No

Audio
ID : 1
Format : DTS
Format/Info : Digital Theater Systems
Format profile : MA / Core
Codec ID : A_DTS
Duration : 1 h 40 min
Bit rate mode : Variable / Constant
Bit rate : 2 048 kb/s / 1 509 kb/s
Channel(s) : 6 channels
Channel positions : Front: L C R, Side: L R, LFE
Sampling rate : 48.0 kHz
Frame rate : 93.750 FPS (512 SPF)
Bit depth : 16 bits
Compression mode : Lossless / Lossy
Stream size : 1.42 GiB (29%)
Default : No
Forced : No


Screenshots

Inuyasha Movie (1-5) (2001-2008)

Inuyasha Movie (1-5) (2001-2008)

Inuyasha Movie (1-5) (2001-2008)


My publications | Rss Channel