Tags
Language
Tags

Seikoku no Dragonar (2014)

Posted By: Lebedev30
Seikoku no Dragonar (2014)

Seikoku no Dragonar (2014)
BDRip | MKV | 1920x1080 | H264@~10000 Kbps | 12x ~ 24mn | 12x ~1.8 Gb
Japanese FLAC@718 Kbps | 2 channels | Subtitles: None
Genre: comedy, dragon, ecchi, fantasy, female student, harem, large breasts, pantsu, school life, small breasts


Description:
Learning to ride and tame dragons comes easy to most students at Ansarivan Dragonar Academy — except for first-year student Ash Blake, who is known by his fellow classmates as the "number one problem child". Poor Ash is the laughing stock at school because, despite his unfashionably large star-shaped brand that marks him as a future dragon master, he has nothing to show for it. His dragon has never appeared.

Until now, that is. One fateful day, Ash's dragon awakes in full glory, but appears different than any dragon ever seen before — in the form of a beautiful girl! What is worse, Ash soon discovers that this new dragon has attitude to spare, as she promptly informs him that she is the master, and he, the servant.

Ash's problems with dragon riding have only just begun.






01. A Boy and His Dragon
02. Ties That Bind: The Astral Flow
03. Riot in the Streets
04. Iron Blood Valkyrie
05. Ice Blue Princess
06. Blue Brionac
07. Lucca Saarinen
08. Moonlit Roar
09. Dragon Dance
10. Assembly in Fontaine
11. Yggdrasil Rising
12. The Star-Branded Dragonar


General
Format : Matroska
Format version : Version 4 / Version 2
File size : 1.88 GiB
Duration : 25 min 7 s
Overall bit rate mode : Variable
Overall bit rate : 10.7 Mb/s
Encoded date : UTC 2020-10-05 12:38:08
Writing application : mkvmerge v32.0.0 ('Astral Progressions') 64-bit
Writing library : libebml v1.3.7 + libmatroska v1.5.0

Video
ID : 2
Format : AVC
Format/Info : Advanced Video Codec
Format profile : High@L5.1
Format settings : CABAC / 16 Ref Frames
Format settings, CABAC : Yes
Format settings, RefFrames : 16 frames
Codec ID : V_MPEG4/ISO/AVC
Duration : 25 min 7 s
Bit rate : 10 000 kb/s
Width : 1 920 pixels
Height : 1 080 pixels
Display aspect ratio : 16:9
Frame rate mode : Constant
Frame rate : 23.976 (24000/1001) FPS
Color space : YUV
Chroma subsampling : 4:2:0
Bit depth : 8 bits
Scan type : Progressive
Bits/(Pixel*Frame) : 0.201
Stream size : 1.76 GiB (93%)
Writing library : x264 core 157 r2969 d4099dd
Encoding settings : cabac=1 / ref=16 / deblock=1:0:0 / analyse=0x3:0x133 / me=tesa / subme=11 / psy=1 / psy_rd=1.00:0.00 / mixed_ref=1 / me_range=24 / chroma_me=1 / trellis=2 / 8x8dct=1 / cqm=0 / deadzone=21,11 / fast_pskip=0 / chroma_qp_offset=-2 / threads=12 / lookahead_threads=3 / sliced_threads=0 / nr=0 / decimate=1 / interlaced=0 / bluray_compat=0 / constrained_intra=0 / bframes=16 / b_pyramid=2 / b_adapt=2 / b_bias=0 / direct=3 / weightb=1 / open_gop=0 / weightp=2 / keyint=240 / keyint_min=23 / scenecut=40 / intra_refresh=0 / rc_lookahead=60 / rc=2pass / mbtree=1 / bitrate=10000 / ratetol=1.0 / qcomp=0.60 / qpmin=0 / qpmax=69 / qpstep=4 / cplxblur=20.0 / qblur=0.5 / ip_ratio=1.40 / aq=1:1.00
Default : Yes
Forced : No

Audio
ID : 1
Format : FLAC
Format/Info : Free Lossless Audio Codec
Codec ID : A_FLAC
Duration : 25 min 7 s
Bit rate mode : Variable
Bit rate : 718 kb/s
Channel(s) : 2 channels
Channel positions : Front: L R
Sampling rate : 48.0 kHz
Frame rate : 11.719 FPS (4096 SPF)
Bit depth : 16 bits
Stream size : 129 MiB (7%)
Writing library : libFLAC 1.3.2 (UTC 2017-01-01)
Default : Yes
Forced : No

Menu
00:00:00.000 : en:00:00:00.000
00:01:28.422 : en:00:01:28.422
00:03:06.019 : en:00:03:06.019
00:13:20.008 : en:00:13:20.008
00:23:21.942 : en:00:23:21.942
00:24:52.032 : en:00:24:52.032


Screenshots

Seikoku no Dragonar (2014)

Seikoku no Dragonar (2014)

Seikoku no Dragonar (2014)


My publications | Rss Channel