Tags
Language
Tags

Sakura Taisen (1997-2000)

Posted By: Lebedev30
Sakura Taisen (1997-2000)

Sakura Taisen (1997-2000)
BDRip | MKV | 1388x1080 | H264@~10000 Kbps | 10x ~ 28mn | 10x ~2.3 Gb
Japanese PCM@1536 Kbps | 2 channels | Subtitles: None
Genre: action, comedy, fantasy, mecha, military, performance, piloted robot, science fiction, seinen, steampunk


Description:
It's the year 1919, and Earth is in trouble. The forces of darkness are mounting, and the only way to stop them is to gather those who possess large amounts of spiritual energy. And, naturally, they're all young, nubile women (of a sort): Kirishima Kanna, the rough, tough, but kind karate master; Maria Tachibana, the Russian gun specialist; Iris Chateaubriand, the insanely cute French preteen psychic (always with her teddy bear Jean-Paul); Li Kouran, the Chinese mechanical genius; Kanzaki Sumire, the rather spoiled heiress of the company who develops the weaponry they all use; and Shinguji Sakura, an earnest, sweet-hearted country girl who has inherited a powerful sword technique. Plus, their male commander, Ohgami Ichirou, who is promoted from naval gofer to everyone's love interest somewhere in between episodes.






01. The Demon Wars Begin Again
02. The Cherry Blossom Spirit Attack
03. Spring is the Time for First Battles
04. A midsummer nights dream
01. The Fearsome Assassin from New York
02. The Golden River
03. The Astounding Cinema Incident
04. Masked Red of Paper Moon
05. Father and Daughter
06. The Time Will Come


General
Format : Matroska
Format version : Version 4 / Version 2
File size : 2.30 GiB
Duration : 28 min 37 s
Overall bit rate : 11.5 Mb/s
Encoded date : UTC 2020-10-17 23:28:50
Writing application : mkvmerge v32.0.0 ('Astral Progressions') 64-bit
Writing library : libebml v1.3.7 + libmatroska v1.5.0

Video
ID : 2
Format : AVC
Format/Info : Advanced Video Codec
Format profile : High@L5
Format settings : CABAC / 16 Ref Frames
Format settings, CABAC : Yes
Format settings, RefFrames : 16 frames
Codec ID : V_MPEG4/ISO/AVC
Duration : 28 min 32 s
Bit rate : 10 000 kb/s
Width : 1 388 pixels
Height : 1 080 pixels
Display aspect ratio : 1.285
Frame rate mode : Constant
Frame rate : 23.976 (24000/1001) FPS
Color space : YUV
Chroma subsampling : 4:2:0
Bit depth : 8 bits
Scan type : Progressive
Bits/(Pixel*Frame) : 0.278
Stream size : 1.99 GiB (87%)
Writing library : x264 core 157 r2969 d4099dd
Encoding settings : cabac=1 / ref=16 / deblock=1:0:0 / analyse=0x3:0x133 / me=tesa / subme=11 / psy=1 / psy_rd=1.00:0.00 / mixed_ref=1 / me_range=24 / chroma_me=1 / trellis=2 / 8x8dct=1 / cqm=0 / deadzone=21,11 / fast_pskip=0 / chroma_qp_offset=-2 / threads=12 / lookahead_threads=3 / sliced_threads=0 / nr=0 / decimate=1 / interlaced=0 / bluray_compat=0 / constrained_intra=0 / bframes=16 / b_pyramid=2 / b_adapt=2 / b_bias=0 / direct=3 / weightb=1 / open_gop=0 / weightp=2 / keyint=240 / keyint_min=23 / scenecut=40 / intra_refresh=0 / rc_lookahead=60 / rc=2pass / mbtree=1 / bitrate=10000 / ratetol=1.0 / qcomp=0.60 / qpmin=0 / qpmax=69 / qpstep=4 / cplxblur=20.0 / qblur=0.5 / ip_ratio=1.40 / aq=1:1.00
Default : Yes
Forced : No

Audio
ID : 1
Format : PCM
Format settings : Little / Signed
Codec ID : A_PCM/INT/LIT
Duration : 28 min 37 s
Bit rate mode : Constant
Bit rate : 1 536 kb/s
Channel(s) : 2 channels
Sampling rate : 48.0 kHz
Frame rate : 200.000 FPS (240 SPF)
Bit depth : 16 bits
Stream size : 315 MiB (13%)
Language : Japanese
Default : Yes
Forced : No


Screenshots

Sakura Taisen (1997-2000)

Sakura Taisen (1997-2000)

Sakura Taisen (1997-2000)


My publications | Rss Channel