Tags
Language
Tags

Sakura Taisen: Katsudou Shashin (2001)

Posted By: Lebedev30
Sakura Taisen: Katsudou Shashin (2001)

Sakura Taisen: Katsudou Shashin (2001)
BDRip | MKV | 1916x1036 | H264@~10000 Kbps | 1x ~ 85mn | 1x ~8.6 Gb
Japanese PCM@4608 Kbps | 6 channels | Subtitles: None
Genre: action, mecha, piloted robot, seinen, steampunk


Description:
* Based on the plot of the game Sakura Wars 3.

While the game features Lieutenant Oogami, the main character who takes off for Paris, narrates one side of the story, the movie unveils the secrets behind Hanagumi. Oogami leaves for Paris, consequently leaving Hanagumi without a leader; thus a new character will be introduced here. To be replaced with Lieutenant Oogami is the former leader of Hoshigumi, Ratchet Altair - a rationalistic and distinct individual, who brings about serious problems to Hanagumi. The members are now in discord with Ratchet. Meanwhile, Teikoku Kagekidan was being threatened by some irrelevant demons and a new type of anti-kouma mechas, (brought by an american company) appears and tries to replace the koubu-kai. Having made repeated mistakes due to the absence of Oogami, Hanagumi is now faced with an unprecedented danger, while the abolishment of Teikoku Kagekidan Hanagumi is being schemed.




01. Complete Movie


General
Format : Matroska
Format version : Version 4 / Version 2
File size : 8.68 GiB
Duration : 1 h 25 min
Overall bit rate : 14.6 Mb/s
Encoded date : UTC 2020-10-20 17:06:34
Writing application : mkvmerge v32.0.0 ('Astral Progressions') 64-bit
Writing library : libebml v1.3.7 + libmatroska v1.5.0

Video
ID : 2
Format : AVC
Format/Info : Advanced Video Codec
Format profile : High@L5.1
Format settings : CABAC / 16 Ref Frames
Format settings, CABAC : Yes
Format settings, RefFrames : 16 frames
Codec ID : V_MPEG4/ISO/AVC
Duration : 1 h 25 min
Bit rate : 10 000 kb/s
Width : 1 916 pixels
Height : 1 036 pixels
Display aspect ratio : 1.85:1
Frame rate mode : Constant
Frame rate : 23.976 (24000/1001) FPS
Color space : YUV
Chroma subsampling : 4:2:0
Bit depth : 8 bits
Scan type : Progressive
Bits/(Pixel*Frame) : 0.210
Stream size : 5.94 GiB (68%)
Writing library : x264 core 157 r2969 d4099dd
Encoding settings : cabac=1 / ref=16 / deblock=1:0:0 / analyse=0x3:0x133 / me=tesa / subme=11 / psy=1 / psy_rd=1.00:0.00 / mixed_ref=1 / me_range=24 / chroma_me=1 / trellis=2 / 8x8dct=1 / cqm=0 / deadzone=21,11 / fast_pskip=0 / chroma_qp_offset=-2 / threads=12 / lookahead_threads=3 / sliced_threads=0 / nr=0 / decimate=1 / interlaced=0 / bluray_compat=0 / constrained_intra=0 / bframes=16 / b_pyramid=2 / b_adapt=2 / b_bias=0 / direct=3 / weightb=1 / open_gop=0 / weightp=2 / keyint=240 / keyint_min=23 / scenecut=40 / intra_refresh=0 / rc_lookahead=60 / rc=2pass / mbtree=1 / bitrate=10000 / ratetol=1.0 / qcomp=0.60 / qpmin=0 / qpmax=69 / qpstep=4 / cplxblur=20.0 / qblur=0.5 / ip_ratio=1.40 / aq=1:1.00
Default : Yes
Forced : No

Audio
ID : 1
Format : PCM
Format settings : Little / Signed
Codec ID : A_PCM/INT/LIT
Duration : 1 h 25 min
Bit rate mode : Constant
Bit rate : 4 608 kb/s
Channel(s) : 6 channels
Sampling rate : 48.0 kHz
Frame rate : 32.000 FPS (1500 SPF)
Bit depth : 16 bits
Stream size : 2.74 GiB (32%)
Language : Japanese
Default : Yes
Forced : No

Menu
00:00:00.000 : en:00:00:00.000
00:00:23.023 : en:00:00:23.023
00:07:44.797 : en:00:07:44.797
00:18:27.439 : en:00:18:27.439
00:28:44.472 : en:00:28:44.472
00:37:35.711 : en:00:37:35.711
00:40:30.177 : en:00:40:30.177
00:43:05.541 : en:00:43:05.541
00:48:48.467 : en:00:48:48.467
00:53:18.320 : en:00:53:18.320
01:08:21.514 : en:01:08:21.514
01:09:44.180 : en:01:09:44.180


Screenshots

Sakura Taisen: Katsudou Shashin (2001)

Sakura Taisen: Katsudou Shashin (2001)

Sakura Taisen: Katsudou Shashin (2001)


My publications | Rss Channel