Tags
Language
Tags

Ninja Collection (2020) (13)

Posted By: Lebedev30
Ninja Collection (2020) (13)

Ninja Collection (2020) (13)
WEBRip | MKV | 1920x1080 | H264@8000 Kbps | 1x ~ 5mn | 1x ~265 Mb
日本語 AAC@128 Kbps | 2 channels | Subtitles: العربية, English, Español, Português
Genre: Animation, Fantasy, Horror |


Description:
Tokyo: A city full of dreams and desires. Even today, there's a band of ninja passing down the old techniques and carrying out missions, hidden from the eyes of the public. Blending into the darkness of the city, slaying inhuman darkness… People call them the Tokeshu.






13. Cat`s Cradle


General
Format : Matroska
Format version : Version 4 / Version 2
File size : 269 MiB
Duration : 4 min 34 s
Overall bit rate : 8 222 kb/s
Encoded date : UTC 2020-10-25 19:31:07
Writing application : mkvmerge v48.0.0 ('Fortress Around Your Heart') 64-bit
Writing library : libebml v1.4.0 + libmatroska v1.6.0
Attachments : Arial_0.ttf / calibri.ttf / comic_0.ttf / georgia_0.ttf / impact_0.ttf / Tahoma_0.ttf / times_0.ttf / trebuc_0.ttf / verdana_0.ttf / AdobeArabic-Bold.otf

Video
ID : 1
Format : AVC
Format/Info : Advanced Video Codec
Format profile : High@L4
Format settings : CABAC / 4 Ref Frames
Format settings, CABAC : Yes
Format settings, RefFrames : 4 frames
Codec ID : V_MPEG4/ISO/AVC
Duration : 4 min 34 s
Bit rate : 8 000 kb/s
Width : 1 920 pixels
Height : 1 080 pixels
Display aspect ratio : 16:9
Frame rate mode : Constant
Frame rate : 24.000 FPS
Color space : YUV
Chroma subsampling : 4:2:0
Bit depth : 8 bits
Scan type : Progressive
Bits/(Pixel*Frame) : 0.161
Stream size : 261 MiB (97%)
Writing library : x264 core 161 r3018 db0d417
Encoding settings : cabac=1 / ref=4 / deblock=1:1:1 / analyse=0x3:0x113 / me=hex / subme=8 / psy=1 / psy_rd=0.40:0.00 / mixed_ref=1 / me_range=16 / chroma_me=1 / trellis=2 / 8x8dct=1 / cqm=0 / deadzone=21,11 / fast_pskip=1 / chroma_qp_offset=-2 / threads=12 / lookahead_threads=2 / sliced_threads=0 / nr=0 / decimate=1 / interlaced=0 / bluray_compat=0 / constrained_intra=0 / bframes=0 / weightp=2 / keyint=96 / keyint_min=48 / scenecut=40 / intra_refresh=0 / rc_lookahead=48 / rc=2pass / mbtree=1 / bitrate=8000 / ratetol=1.0 / qcomp=0.60 / qpmin=0 / qpmax=69 / qpstep=4 / cplxblur=20.0 / qblur=0.5 / vbv_maxrate=12000 / vbv_bufsize=18000 / nal_hrd=none / filler=0 / ip_ratio=1.40 / aq=1:0.60
Language : Japanese
Default : Yes
Forced : No

Audio
ID : 2
Format : AAC
Format/Info : Advanced Audio Codec
Format profile : LC
Codec ID : A_AAC-2
Duration : 4 min 34 s
Bit rate : 128 kb/s
Channel(s) : 2 channels
Channel positions : Front: L R
Sampling rate : 44.1 kHz
Frame rate : 43.066 FPS (1024 SPF)
Compression mode : Lossy
Stream size : 4.18 MiB (2%)
Language : Japanese
Default : Yes
Forced : No

Text #1
ID : 3
Format : ASS
Codec ID : S_TEXT/ASS
Codec ID/Info : Advanced Sub Station Alpha
Duration : 3 min 41 s
Bit rate : 99 b/s
Count of elements : 41
Compression mode : Lossless
Stream size : 2.69 KiB (0%)
Title : English(US)
Language : English
Default : Yes
Forced : No

Text #2
ID : 4
Format : ASS
Codec ID : S_TEXT/ASS
Codec ID/Info : Advanced Sub Station Alpha
Duration : 3 min 41 s
Bit rate : 113 b/s
Count of elements : 41
Compression mode : Lossless
Stream size : 3.07 KiB (0%)
Title : Arabic
Language : Arabic
Default : No
Forced : No

Text #3
ID : 5
Format : ASS
Codec ID : S_TEXT/ASS
Codec ID/Info : Advanced Sub Station Alpha
Duration : 3 min 38 s
Bit rate : 115 b/s
Count of elements : 48
Compression mode : Lossless
Stream size : 3.08 KiB (0%)
Title : Francais(France)
Language : French
Default : No
Forced : No

Text #4
ID : 6
Format : ASS
Codec ID : S_TEXT/ASS
Codec ID/Info : Advanced Sub Station Alpha
Duration : 3 min 41 s
Bit rate : 106 b/s
Count of elements : 41
Compression mode : Lossless
Stream size : 2.86 KiB (0%)
Title : Deutsch
Language : German
Default : No
Forced : No

Text #5
ID : 7
Format : ASS
Codec ID : S_TEXT/ASS
Codec ID/Info : Advanced Sub Station Alpha
Duration : 3 min 41 s
Bit rate : 101 b/s
Count of elements : 41
Compression mode : Lossless
Stream size : 2.74 KiB (0%)
Title : Italiano
Language : Italian
Default : No
Forced : No

Text #6
ID : 8
Format : ASS
Codec ID : S_TEXT/ASS
Codec ID/Info : Advanced Sub Station Alpha
Duration : 3 min 41 s
Bit rate : 98 b/s
Count of elements : 42
Compression mode : Lossless
Stream size : 2.67 KiB (0%)
Title : Espanol(Espana)
Language : Spanish
Default : No
Forced : No

Text #7
ID : 9
Format : ASS
Codec ID : S_TEXT/ASS
Codec ID/Info : Advanced Sub Station Alpha
Duration : 3 min 41 s
Bit rate : 100 b/s
Count of elements : 42
Compression mode : Lossless
Stream size : 2.71 KiB (0%)
Title : Espanol
Language : Spanish
Default : No
Forced : No

Text #8
ID : 10
Format : ASS
Codec ID : S_TEXT/ASS
Codec ID/Info : Advanced Sub Station Alpha
Duration : 3 min 41 s
Bit rate : 110 b/s
Count of elements : 41
Compression mode : Lossless
Stream size : 2.98 KiB (0%)
Title : Portugues(Brasil)
Language : Portuguese
Default : No
Forced : No

Text #9
ID : 11
Format : ASS
Codec ID : S_TEXT/ASS
Codec ID/Info : Advanced Sub Station Alpha
Duration : 3 min 57 s
Bit rate : 118 b/s
Count of elements : 42
Compression mode : Lossless
Stream size : 3.44 KiB (0%)
Title : Russian
Language : Russian
Default : No
Forced : No


Screenshots

Ninja Collection (2020) (13)

Ninja Collection (2020) (13)

Ninja Collection (2020) (13)


My publications | Rss Channel