Tags
Language
Tags

Peter Grill to Kenja no Jikan (2020)

Posted By: Lebedev30
Peter Grill to Kenja no Jikan (2020)

Peter Grill to Kenja no Jikan (2020)
WEBRip | MKV | 1920x1080 | H264@8000 Kbps | 12x ~ 12mn | 12x ~715 Mb
日本語 AAC@128 Kbps | 2 channels | Subtitles: English, Español, Português
Genre: fantasy, half-length episodes, harem, seinen, violence


Description:
* Based on a mature comedy fantasy manga by Hiyama Daisuke.

Peter Grill is the world's strongest fighter, but his ascent to the top came with an unexpected consequence: Women around the world, human and monster alike, want to bear his genetically superior children! Since he's currently engaged to the love of his life, Peter isn't too keen on his sudden popularity, and it will take every ounce of self-control for Peter to keep his hands to himself and his relationship with his paramour in one piece.






01. Peter Grill and the Ogre Sisters
02. Peter Grill and the Future Father-in-Law
03. Peter Grill and Relationships with Elves
04. Peter Grill and Bathing Etiquette
05. Peter Grill and a Blind Date with an Orc
06. Peter Grill and the Orc`s True Character
07. Peter Grill and the Battle of the Fates
08. Peter Grill and the Secret Treaty
09. Peter Grill and the Treaty`s Aftermath
10. Peter Grill and the Angry Megaton Axe
11. Peter Grill and Dueling Manners
12. Peter Grill and the Warrior That Shouted Love


General
Format : Matroska
Format version : Version 4 / Version 2
File size : 715 MiB
Duration : 12 min 20 s
Overall bit rate : 8 099 kb/s
Encoded date : UTC 2020-08-12 12:42:01
Writing application : mkvmerge v48.0.0 ('Fortress Around Your Heart') 64-bit
Writing library : libebml v1.4.0 + libmatroska v1.6.0

Video
ID : 1
Format : AVC
Format/Info : Advanced Video Codec
Format profile : High@L4
Format settings : CABAC / 4 Ref Frames
Format settings, CABAC : Yes
Format settings, RefFrames : 4 frames
Format settings, GOP : N=1
Codec ID : V_MPEG4/ISO/AVC
Duration : 12 min 20 s
Bit rate : 8 000 kb/s
Width : 1 920 pixels
Height : 1 080 pixels
Display aspect ratio : 16:9
Frame rate mode : Constant
Frame rate : 23.976 (24000/1001) FPS
Color space : YUV
Chroma subsampling : 4:2:0
Bit depth : 8 bits
Scan type : Progressive
Bits/(Pixel*Frame) : 0.161
Stream size : 704 MiB (98%)
Writing library : x264 core 142
Encoding settings : cabac=1 / ref=4 / deblock=1:1:1 / analyse=0x3:0x113 / me=umh / subme=8 / psy=1 / psy_rd=0.40:0.00 / mixed_ref=1 / me_range=16 / chroma_me=1 / trellis=1 / 8x8dct=1 / cqm=0 / deadzone=21,11 / fast_pskip=1 / chroma_qp_offset=-2 / threads=12 / lookahead_threads=2 / sliced_threads=0 / nr=0 / decimate=1 / interlaced=0 / bluray_compat=0 / constrained_intra=0 / bframes=0 / weightp=2 / keyint=96 / keyint_min=48 / scenecut=40 / intra_refresh=0 / rc_lookahead=48 / rc=2pass / mbtree=1 / bitrate=8000 / ratetol=1.0 / qcomp=0.60 / qpmin=0 / qpmax=69 / qpstep=4 / cplxblur=20.0 / qblur=0.5 / vbv_maxrate=12000 / vbv_bufsize=18000 / nal_hrd=none / filler=0 / ip_ratio=1.40 / aq=1:0.60
Language : Japanese
Default : Yes
Forced : No

Audio
ID : 2
Format : AAC
Format/Info : Advanced Audio Codec
Format profile : LC
Codec ID : A_AAC-2
Duration : 12 min 20 s
Bit rate : 128 kb/s
Channel(s) : 2 channels
Channel positions : Front: L R
Sampling rate : 44.1 kHz
Frame rate : 43.066 FPS (1024 SPF)
Compression mode : Lossy
Stream size : 11.3 MiB (2%)
Default : Yes
Forced : No

Text #1
ID : 3
Format : ASS
Codec ID : S_TEXT/ASS
Codec ID/Info : Advanced Sub Station Alpha
Duration : 12 min 3 s
Bit rate : 116 b/s
Count of elements : 161
Compression mode : Lossless
Stream size : 10.3 KiB (0%)
Language : English
Default : Yes
Forced : No

Text #2
ID : 4
Format : ASS
Codec ID : S_TEXT/ASS
Codec ID/Info : Advanced Sub Station Alpha
Duration : 12 min 3 s
Bit rate : 102 b/s
Count of elements : 148
Compression mode : Lossless
Stream size : 9.04 KiB (0%)
Language : Spanish
Default : No
Forced : No

Text #3
ID : 5
Format : ASS
Codec ID : S_TEXT/ASS
Codec ID/Info : Advanced Sub Station Alpha
Duration : 12 min 3 s
Bit rate : 108 b/s
Count of elements : 161
Compression mode : Lossless
Stream size : 9.56 KiB (0%)
Language : Portuguese
Default : No
Forced : No


Screenshots

Peter Grill to Kenja no Jikan (2020)

Peter Grill to Kenja no Jikan (2020)

Peter Grill to Kenja no Jikan (2020)


My publications | Rss Channel