Tags
Language
Tags

Fairy Tail (2009-2013)

Posted By: Lebedev30
Fairy Tail (2009-2013)

Fairy Tail (2009-2013)
BDRip | MKV | 1920x1080 | H264@~4500 Kbps | 175x ~ 24mn | 175x ~950 Mb
Japanese TRUEHD@836 Kbps | 2 channels | Subtitles: None
Genre: action, adventure, comedy, fantasy, magic, shounen


Description:
* Based on a manga of the same name by Mashima Hiro, serialised in Weekly Shounen Magazine.

A young celestial mage, Lucy Heartfilia, runs away from home and travels to the land of Fiore to join the magical Fairy Tail Guild. Along the way, she meets Natsu Dragneel, a teenage boy looking for his foster parent, a dragon named Igneel, with his best friend, Happy the cat. Shortly after their meeting, Lucy is abducted by Bora of Prominence, who was posing as Salamander of Fairy Tail, to be sold as a slave. Natsu rescues her and reveals that he is the real Salamander of Fairy Tail and has the skills of a Dragon Slayer, an ancient fire magic. He offers her membership into the guild, which she gladly accepts, they along with Erza Scarlet — Armoured maiden, Gray Fullbuster — Ice Maker, and Happy become a team performing various missions offered to the Fairy Tail guild.






01. The Fairy Tail
02. Fire Dragon, Monkey, and Bull
03. Infiltrate the Everlue Mansion
04. Dear Kaby
05. The Wizard in Armor
06. Fairies in the Wind
07. Flame and Wind
08. The Strongest Team!!!
09. Natsu Devours a Village
10. Natsu vs. Erza
11. The Cursed Island
12. Moon Drip
13. Natsu vs. Yuka the Wave User
14. Just Do Whatever!!
15. Eternal Magic
16. The Final Showdown on Galuna Island
17. Burst
18. Reach the Sky Above
19. Changeling
20. Natsu and the Dragon Egg
21. The Phantom Lord
22. Lucy Heartfilia
23. 15 Minutes
24. To Keep from Seeing Those Tears
25. A Flower Blooms in the Rain
26. Wings of Flame
27. The Two Dragon Slayers
28. Fairy Law
29. My Resolve
30. Next Generation
31. A Star Removed from the Sky
32. Celestial Spirit King
33. The Tower of Heaven
34. Jellal
35. Voice of Darkness
36. Heaven`s Game
37. Armor of the Heart
38. Destiny
39. Give Our Prayers to the Sacred Light
40. Titania Falls
41. Home
42. Battle of Fairy Tail
43. Defeat Your Friends to Save Your Friends
44. Thunder Palace
45. Advent of Satan
46. Clash at Kardia Cathedral!
47. Triple Dragons
48. Fantasia
49. The Day of the Fateful Encounter
50. Special Request: Watch Out for the Guy You Like!
51. Love & Lucky
52. Allied Forces, Assemble!
53. Enter the Oracion Seis!
54. Maiden of the Sky
55. The Girl and the Ghost
56. Dead Grand Prix
57. Darkness
58. Celestial Skirmish
59. Jellal of Days Gone By
60. March of Destruction
61. Super Aerial Battle: Natsu vs. Cobra!
62. Wizard Saint Jura
63. Your Words
64. Zero
65. From Pegasus to Fairies
66. The Power of Feelings
67. I`m with You
68. A Guild for One
69. Call of the Dragon
70. Natsu vs. Gray!!
71. Friendship Overcomes the Dead
72. A Fairy Tail Wizard
73. Rainbow Cherry Blossoms
74. Wendy`s First Big Job!?
75. 24-Hour Endurance Road Race
76. Gildarts
77. Earth Land
78. Edolas
79. Fairy Hunter
80. Key of Hope
81. Fireball
82. Welcome Home
83. Extalia
84. Fly, to Our Friends!
85. Code ETD
86. Erza vs. Erza
87. We`re Talking About Lives Here!!!!
88. For Pride`s Sake, the River of Stars
89. The Apocalyptic Dragon Chain Cannon
90. The Boy Back Then
91. Dragon Sense
92. O Living Ones
93. I`m Standing Right Here
94. Bye-Bye Edolas
95. isanna
96. He Who Extinguishes Life
97. Best Partners
98. Who`s the Lucky One?
99. Natsu Vs. Gildarts
100. Mest
101. Black Wizard
102. Iron Soul
103. Makarov Charges
104. Lost Magic
105. Fire Dragon vs. Flame God
106. Grand Magic World
107. Arc of Embodiment
108. Human Gate
109. Lucy Fire
110. Dead-End of Despair
111. Tears of Love and Vitality
112. The One Thing I Couldn`t Say
113. Tenrou Tree
114. Erza vs. Azuma
115. Freezing Fighting Spirit
116. Power of Life
117. Rolling Thunder
118. The Man Without an Emblem
119. Realm of the Abyss
120. Daybreak on Tenrou Island
121. The Right to Love
122. Let`s Hold Hands
123. Fairy Tail, Year X791
124. The Seven Year Gap
125. The Magic Ball
126. True Scoundrels: The Butt Jiggle Gang
127. The Terror of Invisible Lucy!
128. Father`s Memento
129. Turbulent Showdown! Natsu vs. Laxus
130. Target: Lucy
131. The Fury of Legion
132. Key of the Starry Heavens
133. Travel Companions
134. Labyrinth Capriccio
135. Footprints of the Myth
136. True Scoundrels, One Again
137. Defying Calculation
138. The Course of the Holy War
139. Time Begins to Tick
140. Enter the Neo-Oracion Seis!
141. Get the Infinity Clock!
142. Dissonance of Battle
143. Anti-Link
144. Despair Unleashed
145. Real Nightmare
146. Time Spiral
147. To the Infinity Castle!
148. Angel Tears
149. I Hear the Voice of My Friend
150. Lucy and Michelle
151. Sabertooth
152. And So We Aim for the Top
153. Song of the Stars
154. For All the Time We Missed Each Other
155. Crocus, the Flower-Blooming Capital
156. Sky Labyrinth
157. New Guild
158. Night of Shooting Stars
159. Lucy vs. Flare
160. Portent
161. Chariots
162. Elfman vs. Bacchus
163. Mirajane vs. Jenny
164. Kagura vs. Yukino
165. Hatred at Nightfall
166. Pandemonium
167. 100 Against 1
168. Laxus vs. Alexei
169. Wendy vs. Shelia
170. Small Fists
171. Naval Battle
172. A Parfum for You
173. Battle of Dragon Slayers!
174. Four Dragons
175. Natsu vs. the Twin Dragons


General
Format : Matroska
Format version : Version 4 / Version 2
File size : 945 MiB
Duration : 24 min 27 s
Overall bit rate mode : Variable
Overall bit rate : 5 400 kb/s
Movie name : Fairy Tail
Encoded date : UTC 2020-10-26 16:17:31
Writing application : mkvmerge v32.0.0 ('Astral Progressions') 64-bit
Writing library : libebml v1.3.7 + libmatroska v1.5.0

Video
ID : 2
Format : AVC
Format/Info : Advanced Video Codec
Format profile : High 10@L5.1
Format settings : CABAC / 16 Ref Frames
Format settings, CABAC : Yes
Format settings, RefFrames : 16 frames
Codec ID : V_MPEG4/ISO/AVC
Duration : 24 min 27 s
Bit rate : 4 500 kb/s
Width : 1 920 pixels
Height : 1 080 pixels
Display aspect ratio : 16:9
Frame rate mode : Constant
Frame rate : 23.976 (24000/1001) FPS
Color space : YUV
Chroma subsampling : 4:2:0
Bit depth : 10 bits
Scan type : Progressive
Bits/(Pixel*Frame) : 0.091
Stream size : 788 MiB (83%)
Writing library : x264 core 142 r2431 ac76440
Encoding settings : cabac=1 / ref=16 / deblock=1:1:1 / analyse=0x3:0x133 / me=umh / subme=9 / psy=1 / psy_rd=0.40:0.00 / mixed_ref=1 / me_range=16 / chroma_me=1 / trellis=2 / 8x8dct=1 / cqm=0 / deadzone=21,11 / fast_pskip=1 / chroma_qp_offset=-2 / threads=12 / lookahead_threads=1 / sliced_threads=0 / nr=0 / decimate=1 / interlaced=0 / bluray_compat=0 / constrained_intra=0 / bframes=5 / b_pyramid=2 / b_adapt=2 / b_bias=0 / direct=3 / weightb=1 / open_gop=0 / weightp=2 / keyint=240 / keyint_min=23 / scenecut=40 / intra_refresh=0 / rc_lookahead=60 / rc=2pass / mbtree=1 / bitrate=4500 / ratetol=1.0 / qcomp=0.60 / qpmin=0 / qpmax=81 / qpstep=4 / cplxblur=20.0 / qblur=0.5 / ip_ratio=1.40 / aq=1:0.60
Default : Yes
Forced : No

Audio
ID : 1
Format : TrueHD
Codec ID : A_TRUEHD
Duration : 24 min 27 s
Bit rate mode : Variable
Bit rate : 836 kb/s
Maximum bit rate : 1 191 kb/s
Channel(s) : 2 channels
Channel positions : Front: C
Sampling rate : 48.0 kHz
Frame rate : 1 200.000 FPS (40 SPF)
Compression mode : Lossless
Stream size : 146 MiB (15%)
Title : Original @ TrueHD 2 ch 16 bit 836 kbps
Language : Japanese
Default : Yes
Forced : No

Menu
00:00:00.000 : ru:Интро
00:00:56.056 : ru:Опенинг
00:02:26.021 : ru:Часть А
00:12:13.608 : ru:Часть Б
00:22:24.803 : ru:Эндинг
00:23:56.602 : ru:Далее


Screenshots

Fairy Tail (2009-2013)

Fairy Tail (2009-2013)

Fairy Tail (2009-2013)


My publications | Rss Channel