Tags
Language
Tags

Fairy Tail (2014-2016)

Posted By: Lebedev30
Fairy Tail (2014-2016)

Fairy Tail (2014-2016)
BDRip | MKV | 1920x1080 | H264@~4500 Kbps | 102x ~ 24mn | 102x ~950 Mb
Japanese TRUEHD@809 Kbps | 2 channels | Subtitles: None
Genre: action, adventure, comedy, fantasy, magic, shounen


Description:
Natsu, Lucy, and their fellow Fairy Tail mages return to protect the humanity from powerful enemies, including but not limited to Dark Guilds, dragons, and Zeref, the most powerful dark mage.






01. King of the Dragons
02. The Eclipse Project
03. Fairy Tactician
04. Gray vs. Rufus
05. The Hungry Wolf Knights
06. Fairy Tail vs. Executioners
07. Scorching Earth
08. Our Place
09. The Kingdom `til Tomorrow
10. Erza vs. Kagura
11. A Future Racing Toward Despair
12. Frog
13. Roaring Thunder!
14. Gloria
15. The One Who Closes the Gate
16. Natsu vs. Rogue
17. For Me, Too
18. Seven Dragons
19. Zirconis` Magic
20. People and People, Dragons and Dragons, People and Dragons
21. Sin and Sacrifice
22. Time of Life
23. Fields of Gold
24. The Grand Banquet
25. Droplets of Time
26. A Gift
27. Welcome Back, Frosch
28. Moulin Rouge
29. Full Effort Hospitality!
30. Signal of Rebellion
31. Library Panic
32. Hisui Rises!
33. Astral Spiritus
34. Wendy vs. Aquarius: Let`s Have Fun in the Amusement Park!
35. Guild Deck vs. Celestial Deck
36. Gray vs. Cancer! Dance Battle!
37. Juvia vs. Aries! Desert Death Match!
38. Erza vs. Sagittarius! Horseback Showdown!
39. Natsu vs. Leo
40. Ophiuchus, the Snake Charmer
41. When the Stars Fall
42. Celestial Spirit Beast
43. Believe
44. What a Pure Heart Weaves
45. 413 Days
46. The Labyrinth of White
47. Transform!
48. It`s Kemo-Kemo!
49. The Place You Came To
50. Lightning Man
51. Fairy Tail of the Dead Meeeeeeeeen
52. Morning of a New Adventure
53. Wizards vs. Hunters
54. Art of Regression
55. The Demon Returns
56. Gray vs. Doriarte
57. Voice of the Flame
58. Song of the Fairies
59. Tartaros Chapter, Prologue: The Nine Demon Gates
60. Tartaros Chapter, Prologue: Fairies vs. Netherworld
61. Tartaros Chapter, Prologue: The White Legacy
62. Tartaros Chapter, Prologue: Natsu vs. Jackal
63. Tartaros Chapter: Immorality and Sinners
64. Tartaros Chapter: Jellal vs. Oracion Seis
65. Tartaros Chapter: A Place Reached by Prayer
66. Tartaros Chapter: The Demon`s Rebirth
67. Tartaros Chapter: To Let Live or Die
68. Tartaros Chapter: Wendy vs. Ezel
69. Tartaros Chapter: Friends Forever
70. Tartaros Chapter: Hell`s Core
71. Tartaros Chapter: Underworld King
72. Tartaros Chapter: Alegria
73. Tartaros Chapter: A Strike from the Stars
74. Tartaros Chapter: Celestial Spirit King vs. Underworld King
75. Tartaros Chapter: Erza vs. Minerva
76. Tartaros Chapter: The Boy`s Tale
77. Tartaros Chapter: Gray vs. Silver
78. Tartaros Chapter: A Silver Wish
79. Tartaros Chapter: Air
80. Tartaros Chapter: Steel
81. Tartaros Chapter: Final Duels
82. Tartaros Chapter: Wings of Despair
83. Tartaros Chapter: Fire Dragon Iron Fist
84. Tartaros Chapter: 00:00
85. Tartaros Chapter: The Girl in the Crystal
86. Tartaros Chapter: Absolute Demon
87. Tartaros Chapter: Memento Mori
88. Tartaros Chapter: Soaring Above Ishgar
89. Tartaros Chapter: Drops of Fire
90. Tartaros Chapter, Finale: Where the Power of Life Lies
91. The Fairy in Your Heart
92. The Adventure Begins
93. Treasure Hunt
94. Dancing with Blades
95. Moonlit Lake
96. Blue Skull
97. Conveyer of Magic
98. Treasure
99. Law
100. Eternal Adventure
101. Challenger
102. Message of Flame


General
Format : Matroska
Format version : Version 4 / Version 2
File size : 939 MiB
Duration : 24 min 27 s
Overall bit rate mode : Variable
Overall bit rate : 5 369 kb/s
Movie name : Fairy Tail TV 2 001 серия
Encoded date : UTC 2020-10-26 18:41:53
Writing application : mkvmerge v32.0.0 ('Astral Progressions') 64-bit
Writing library : libebml v1.3.7 + libmatroska v1.5.0

Video
ID : 1
Format : AVC
Format/Info : Advanced Video Codec
Format profile : High 10@L5.1
Format settings : CABAC / 16 Ref Frames
Format settings, CABAC : Yes
Format settings, RefFrames : 16 frames
Codec ID : V_MPEG4/ISO/AVC
Duration : 24 min 27 s
Bit rate : 4 500 kb/s
Width : 1 920 pixels
Height : 1 080 pixels
Display aspect ratio : 16:9
Frame rate mode : Constant
Frame rate : 23.976 (24000/1001) FPS
Color space : YUV
Chroma subsampling : 4:2:0
Bit depth : 10 bits
Scan type : Progressive
Bits/(Pixel*Frame) : 0.091
Stream size : 787 MiB (84%)
Writing library : x264 core 142 r2431 ac76440
Encoding settings : cabac=1 / ref=16 / deblock=1:1:1 / analyse=0x3:0x133 / me=umh / subme=9 / psy=1 / psy_rd=0.40:0.00 / mixed_ref=1 / me_range=16 / chroma_me=1 / trellis=2 / 8x8dct=1 / cqm=0 / deadzone=21,11 / fast_pskip=1 / chroma_qp_offset=-2 / threads=6 / lookahead_threads=1 / sliced_threads=0 / nr=0 / decimate=1 / interlaced=0 / bluray_compat=0 / constrained_intra=0 / bframes=5 / b_pyramid=2 / b_adapt=2 / b_bias=0 / direct=3 / weightb=1 / open_gop=0 / weightp=2 / keyint=240 / keyint_min=23 / scenecut=40 / intra_refresh=0 / rc_lookahead=60 / rc=2pass / mbtree=1 / bitrate=4500 / ratetol=1.0 / qcomp=0.60 / qpmin=0 / qpmax=81 / qpstep=4 / cplxblur=20.0 / qblur=0.5 / ip_ratio=1.40 / aq=1:0.60
Default : Yes
Forced : No

Audio
ID : 2
Format : TrueHD
Codec ID : A_TRUEHD
Duration : 24 min 27 s
Bit rate mode : Variable
Bit rate : 809 kb/s
Maximum bit rate : 1 134 kb/s
Channel(s) : 2 channels
Channel positions : Front: C
Sampling rate : 48.0 kHz
Frame rate : 1 200.000 FPS (40 SPF)
Compression mode : Lossless
Stream size : 141 MiB (15%)
Default : Yes
Forced : No

Menu
00:00:00.000 : ru:Интро
00:00:57.057 : ru:Опенинг
00:02:27.022 : ru:Часть А
00:12:45.098 : ru:Часть Б
00:22:26.053 : ru:Эндинг
00:23:56.101 : ru:Далее


Screenshots

Fairy Tail (2014-2016)

Fairy Tail (2014-2016)

Fairy Tail (2014-2016)


My publications | Rss Channel