Tags
Language
Tags

Choujikuu Seiki Orguss (1983-1984, 1993-1995)

Posted By: Lebedev30
Choujikuu Seiki Orguss (1983-1984, 1993-1995)

Choujikuu Seiki Orguss (1983-1984, 1993-1995)
BDRip | MKV | 960x720 | H264@~6500 Kbps | 41x ~ 24mn | 41x ~1.2 Gb
Japanese FLAC@676 Kbps | 2 channels | Subtitles: None
Genre: action, fantasy, mecha, piloted robot, romance, science fiction, time travel


Description:
The story focuses on Lt. Kei Katsuragi, a fighter pilot. His mission is to protect a new bomb while it is being planted. The bomb, the Space/Time oscillation bomb. The plans go wrong, Kei has to try and stop the bomb, messes up the settings and the bomb goes off, scrambling time, space and the dimensions. The series follows Kei adventures in this new dimension after he is picked up by the Emaan, a group of techno-gypsies, and his attempt to set the time/dimensions straight.






01. Space-Time Destruction
02. Lonely Wolf
03. Pretty Machine
04. Caravan
05. Lovers
06. Vanishing Point
07. I Love You
08. Runaway
09. Revolution
10. Barbarians
11. Dummy
12. Chiram Girl
13. Caspian Crater
14. Operation D
15. The Singularity!!
16. The Factory
17. Seventeen
18. Sisters
19. Time Slip
20. Broken Through
21. Father
22. Reside or Decide
23. Destroyer
24. Mu
25. Tiram Soldier
26. Breakdown
27. Message
28. Come Back Lover
29. Choice
30. Outsider
31. Children
32. Lost World
33. Last Charge
34. Battlefield
35. Space-Time Creation
01. Fool`s Choice
02. Where Angels Fear to Tread
03. Fugitives
04. Searcher
05. Destroyer
06. Those who wish for Tomorrow


General
Format : Matroska
Format version : Version 4 / Version 2
File size : 1.28 GiB
Duration : 25 min 29 s
Overall bit rate mode : Variable
Overall bit rate : 7 178 kb/s
Encoded date : UTC 2020-10-28 23:39:25
Writing application : mkvmerge v32.0.0 ('Astral Progressions') 64-bit
Writing library : libebml v1.3.7 + libmatroska v1.5.0

Video
ID : 2
Format : AVC
Format/Info : Advanced Video Codec
Format profile : High@L5
Format settings : CABAC / 16 Ref Frames
Format settings, CABAC : Yes
Format settings, RefFrames : 16 frames
Codec ID : V_MPEG4/ISO/AVC
Duration : 25 min 29 s
Bit rate : 6 500 kb/s
Width : 960 pixels
Height : 720 pixels
Display aspect ratio : 4:3
Frame rate mode : Constant
Frame rate : 23.976 (24000/1001) FPS
Color space : YUV
Chroma subsampling : 4:2:0
Bit depth : 8 bits
Scan type : Progressive
Bits/(Pixel*Frame) : 0.392
Stream size : 1.16 GiB (91%)
Writing library : x264 core 142 r2431 ac76440
Encoding settings : cabac=1 / ref=16 / deblock=1:1:1 / analyse=0x3:0x133 / me=umh / subme=10 / psy=1 / psy_rd=0.40:0.00 / mixed_ref=1 / me_range=24 / chroma_me=1 / trellis=2 / 8x8dct=1 / cqm=0 / deadzone=21,11 / fast_pskip=1 / chroma_qp_offset=-2 / threads=6 / lookahead_threads=1 / sliced_threads=0 / nr=0 / decimate=1 / interlaced=0 / bluray_compat=0 / constrained_intra=0 / bframes=10 / b_pyramid=2 / b_adapt=2 / b_bias=0 / direct=3 / weightb=1 / open_gop=0 / weightp=2 / keyint=240 / keyint_min=23 / scenecut=40 / intra_refresh=0 / rc_lookahead=60 / rc=2pass / mbtree=1 / bitrate=6500 / ratetol=1.0 / qcomp=0.60 / qpmin=0 / qpmax=69 / qpstep=4 / cplxblur=20.0 / qblur=0.5 / ip_ratio=1.40 / aq=1:0.60
Default : Yes
Forced : No

Audio
ID : 1
Format : FLAC
Format/Info : Free Lossless Audio Codec
Codec ID : A_FLAC
Duration : 25 min 29 s
Bit rate mode : Variable
Bit rate : 676 kb/s
Channel(s) : 2 channels
Channel positions : Front: L R
Sampling rate : 48.0 kHz
Frame rate : 11.719 FPS (4096 SPF)
Bit depth : 16 bits
Stream size : 123 MiB (9%)
Writing library : libFLAC 1.3.2 (UTC 2017-01-01)
Default : Yes
Forced : No

Menu
00:00:00.000 : en:Opening
00:01:36.596 : en:A Part
00:12:58.527 : en:B Part
00:23:33.120 : en:Ending
00:24:58.205 : en:Yokoku


Screenshots

Choujikuu Seiki Orguss (1983-1984, 1993-1995)

Choujikuu Seiki Orguss (1983-1984, 1993-1995)

Choujikuu Seiki Orguss (1983-1984, 1993-1995)


My publications | Rss Channel