Tags
Language
Tags

Karakai Jouzu no Takagi-san (2018)

Posted By: Lebedev30
Karakai Jouzu no Takagi-san (2018)

Karakai Jouzu no Takagi-san (2018)
BDRip | MKV | 1920x1080 | H264@~10000 Kbps | 12x ~ 24mn | 12x ~1.7 Gb
Japanese FLAC@663 Kbps | 2 channels | Subtitles: None
Genre: comedy, middle school, school life, shounen


Description:
* Based on Yamamoto Souichirou's slice of life comedy shounen manga.

"If you blush, you lose."

Living by this principle, the middle schooler Nishikata gets constantly made fun of by his seat neighbor Takagi-san. With his pride shattered to pieces, he vows to turn the tables and get back at her some day.
And so, he attempts to tease her day after day, only to find himself victim to Takagi-san's ridicule again sooner than later. Will he be able to make Takagi-san blush from embarrassment even once in the end?






01. Eraser / Day Duty / Funny Face / One Hundred Yen
02. Calligraphy / Seasonal Change of Clothing / English Translation / Pool
03. Coffee / Empty Can / Soda / Muscle Training / Dubbing / Umbrella
04. Cleaning Duty / Kickover / Cold / Tailing
05. Studying for the Test / Test / Test Results / Bookstore / Shelter from the Rain
06. Tandem Riding / First Day of Summer Vacation / Test of Courage / Summer Science Project / Water Tap
07. Shopping / Bathing Suit / Ocean / Room
08. Typhoon / Marathon / Ribs / Regret
09. Cell Phone / Horror / Picture
10. Who`s Taller? / I Hate the Cold / Invitation / Two-Choice Question
11. Cat / Taste / Portrait / Fortune Telling / Critical
12. Letter / First Day of School / Seating Arrangement


General
Format : Matroska
Format version : Version 4 / Version 2
File size : 1.76 GiB
Duration : 23 min 37 s
Overall bit rate mode : Variable
Overall bit rate : 10.7 Mb/s
Encoded date : UTC 2020-10-26 19:50:06
Writing application : mkvmerge v32.0.0 ('Astral Progressions') 64-bit
Writing library : libebml v1.3.7 + libmatroska v1.5.0

Video
ID : 2
Format : AVC
Format/Info : Advanced Video Codec
Format profile : High@L5.1
Format settings : CABAC / 16 Ref Frames
Format settings, CABAC : Yes
Format settings, RefFrames : 16 frames
Codec ID : V_MPEG4/ISO/AVC
Duration : 23 min 37 s
Bit rate : 10 000 kb/s
Width : 1 920 pixels
Height : 1 080 pixels
Display aspect ratio : 16:9
Frame rate mode : Constant
Frame rate : 23.976 (24000/1001) FPS
Color space : YUV
Chroma subsampling : 4:2:0
Bit depth : 8 bits
Scan type : Progressive
Bits/(Pixel*Frame) : 0.201
Stream size : 1.65 GiB (94%)
Writing library : x264 core 142 r2431 ac76440
Encoding settings : cabac=1 / ref=16 / deblock=1:1:1 / analyse=0x3:0x133 / me=umh / subme=9 / psy=1 / psy_rd=0.40:0.00 / mixed_ref=1 / me_range=16 / chroma_me=1 / trellis=2 / 8x8dct=1 / cqm=0 / deadzone=21,11 / fast_pskip=1 / chroma_qp_offset=-2 / threads=6 / lookahead_threads=1 / sliced_threads=0 / nr=0 / decimate=1 / interlaced=0 / bluray_compat=0 / constrained_intra=0 / bframes=5 / b_pyramid=2 / b_adapt=2 / b_bias=0 / direct=3 / weightb=1 / open_gop=0 / weightp=2 / keyint=240 / keyint_min=23 / scenecut=40 / intra_refresh=0 / rc_lookahead=60 / rc=2pass / mbtree=1 / bitrate=10000 / ratetol=1.0 / qcomp=0.60 / qpmin=0 / qpmax=69 / qpstep=4 / cplxblur=20.0 / qblur=0.5 / ip_ratio=1.40 / aq=1:0.60
Default : Yes
Forced : No

Audio
ID : 1
Format : FLAC
Format/Info : Free Lossless Audio Codec
Codec ID : A_FLAC
Duration : 23 min 37 s
Bit rate mode : Variable
Bit rate : 663 kb/s
Channel(s) : 2 channels
Channel positions : Front: L R
Sampling rate : 48.0 kHz
Frame rate : 11.719 FPS (4096 SPF)
Bit depth : 16 bits
Stream size : 112 MiB (6%)
Writing library : libFLAC 1.3.2 (UTC 2017-01-01)
Default : Yes
Forced : No

Menu
00:00:00.000 : en:Avant
00:00:40.040 : en:Opening
00:02:10.005 : en:A Part
00:09:52.008 : en:B Part
00:15:44.944 : en:C Part
00:20:46.954 : en:Ending
00:22:16.919 : en:D Part


Screenshots

Karakai Jouzu no Takagi-san (2018)

Karakai Jouzu no Takagi-san (2018)

Karakai Jouzu no Takagi-san (2018)


My publications | Rss Channel