Tags
Language
Tags

Mamono hunter yohko (1990-1995)

Posted By: Lebedev30
Mamono hunter yohko (1990-1995)

Mamono hunter yohko (1990-1995)
DVDRip | MKV | 690x478 | H264@~2500 Kbps | 6x ~ 45mn | 6x ~800 Mb
Japanese AC-3@224 Kbps | 2 channels | Subtitles: None
Genre: action, comedy, demon, ecchi, magic, magical girl, martial arts, pantsu, super power, swordplay


Description:
Mano Youko may seem like a typical 16-year-old high school girl, who is athletic, pretty, and boy crazy. She lives in a nice house with her mother Sayoko and her grandmother Madoka. But once you get past that, Youko is hardly normal. Many of the female members of the Mano family have been Mamono hunters, fighting evil spirits and demons throughout history. Youko learns that she was able to escape an earlier attack because her powers have been manifesting, and that now she is indeed the 108th generation Mamono hunter.






01. Volume 1
02. Volume 2
03. Volume 3
04. Volume 4
05. Hell on Earth
06. Volume 6


General
Format : Matroska
Format version : Version 4 / Version 2
File size : 836 MiB
Duration : 42 min 28 s
Overall bit rate : 2 751 kb/s
Encoded date : UTC 2020-10-13 22:04:08
Writing application : mkvmerge v32.0.0 ('Astral Progressions') 64-bit
Writing library : libebml v1.3.7 + libmatroska v1.5.0
Attachments : msgothic.ttc / trebuc.ttf

Video
ID : 2
Format : AVC
Format/Info : Advanced Video Codec
Format profile : High 10@L4
Format settings : CABAC / 16 Ref Frames
Format settings, CABAC : Yes
Format settings, RefFrames : 16 frames
Codec ID : V_MPEG4/ISO/AVC
Duration : 42 min 28 s
Bit rate : 2 500 kb/s
Width : 690 pixels
Height : 478 pixels
Display aspect ratio : 1.444
Frame rate mode : Constant
Frame rate : 23.976 (24000/1001) FPS
Color space : YUV
Chroma subsampling : 4:2:0
Bit depth : 10 bits
Scan type : Progressive
Bits/(Pixel*Frame) : 0.316
Stream size : 759 MiB (91%)
Writing library : x264 core 157 r2935 545de2f
Encoding settings : cabac=1 / ref=16 / deblock=1:0:0 / analyse=0x3:0x133 / me=tesa / subme=11 / psy=1 / psy_rd=1.00:0.00 / mixed_ref=1 / me_range=24 / chroma_me=1 / trellis=2 / 8x8dct=1 / cqm=0 / deadzone=21,11 / fast_pskip=0 / chroma_qp_offset=-2 / threads=12 / lookahead_threads=3 / sliced_threads=0 / nr=0 / decimate=1 / interlaced=0 / bluray_compat=0 / constrained_intra=0 / bframes=16 / b_pyramid=2 / b_adapt=2 / b_bias=0 / direct=3 / weightb=1 / open_gop=0 / weightp=2 / keyint=240 / keyint_min=23 / scenecut=40 / intra_refresh=0 / rc_lookahead=60 / rc=2pass / mbtree=1 / bitrate=2500 / ratetol=1.0 / qcomp=0.60 / qpmin=0 / qpmax=81 / qpstep=4 / cplxblur=20.0 / qblur=0.5 / ip_ratio=1.40 / aq=1:1.00
Default : Yes
Forced : No

Audio
ID : 1
Format : AC-3
Format/Info : Audio Coding 3
Codec ID : A_AC3
Duration : 42 min 27 s
Bit rate mode : Constant
Bit rate : 224 kb/s
Channel(s) : 2 channels
Channel positions : Front: L R
Sampling rate : 48.0 kHz
Frame rate : 31.250 FPS (1536 SPF)
Bit depth : 16 bits
Compression mode : Lossy
Stream size : 68.0 MiB (8%)
Service kind : Complete Main
Default : Yes
Forced : No


Screenshots

Mamono hunter yohko (1990-1995)

Mamono hunter yohko (1990-1995)

Mamono hunter yohko (1990-1995)


My publications | Rss Channel